找回密码

蓝光电影网

查看: 2881|回复: 4

[剧情] 小妇人/小女人 Little.Women.2018.1080p.WEB-DL.DD5.1.H264-FGT 4.41GB

[复制链接]
蓝光币
1020
发表于 2020-2-2 11:51:18 | 显示全部楼层 |阅读模式
小妇人/小女人 Little.Women.2018.1080p.WEB-DL.DD5.1.H264-FGT 4.41GB-1.png

译  名 小妇人 / 小女人
片  名 Little Women
年  代 2018
产  地 美国
类  别 剧情 / 家庭
语  言 英语
上映日期 2018-09-28(美国)
IMDb评分  5.0/10 from 842 users
IMDb链接  https://www.imdb.com/title/tt6495094
豆瓣评分 0/10 from 0 users
豆瓣链接 https://movie.douban.com/subject/27066177/
片  长 132分钟
导  演 Clare Niederpruem
编  剧 Clare Niederpruem / 路易莎·梅·奥尔科特 Louisa May Alcott
主  演 莉·汤普森 Lea Thompson
       卢卡斯·格拉比 Lucas Grabeel
       伊恩·鲍汉 Ian Bohen
       Melanie Stone
       Allie Jennings
       Stuart Edge
       Elise Jones


标  签 美国 | 2018 | 美国电影 | 电影 | 家庭 | 温情 | 长大 | 美國

简  介  

  自力建造[小女人](Little Women,暂译)公布新卡司。伊恩·鲍汉确认加盟[小女人],该片按照路易莎·梅·阿尔克特同名小说改编,将在2018年上映。
  1. Video
  2. ID                                       : 1
  3. Format                                   : AVC
  4. Format/Info                              : Advanced Video Codec
  5. Format profile                           : [email protected]
  6. Format settings                          : CABAC / 4 Ref Frames
  7. Format settings, CABAC                   : Yes
  8. Format settings, Reference frames        : 4 frames
  9. Codec ID                                 : V_MPEG4/ISO/AVC
  10. Duration                                 : 1 h 52 min
  11. Bit rate                                 : 5 233 kb/s
  12. Width                                    : 1 916 pixels
  13. Height                                   : 1 072 pixels
  14. Display aspect ratio                     : 16:9
  15. Frame rate mode                          : Constant
  16. Frame rate                               : 23.976 FPS
  17. Color space                              : YUV
  18. Chroma subsampling                       : 4:2:0
  19. Bit depth                                : 8 bits
  20. Scan type                                : Progressive
  21. Bits/(Pixel*Frame)                       : 0.106
  22. Stream size                              : 4.11 GiB (93%)
  23. Title                                    : Little.Women.2018.1080p.WEB-DL.DD5.1.H264-FGT
  24. Language                                 : English
  25. Default                                  : Yes
  26. Forced                                   : No
  27. Color range                              : Limited
  28. Color primaries                          : BT.709
  29. Transfer characteristics                 : BT.709
  30. Matrix coefficients                      : BT.709

  31. Audio
  32. ID                                       : 2
  33. Format                                   : AC-3
  34. Format/Info                              : Audio Coding 3
  35. Commercial name                          : Dolby Digital
  36. Codec ID                                 : A_AC3
  37. Duration                                 : 1 h 52 min
  38. Bit rate mode                            : Constant
  39. Bit rate                                 : 384 kb/s
  40. Channel(s)                               : 6 channels
  41. Channel layout                           : L R C LFE Ls Rs
  42. Sampling rate                            : 48.0 kHz
  43. Frame rate                               : 31.250 FPS (1536 SPF)
  44. Compression mode                         : Lossy
  45. Stream size                              : 308 MiB (7%)
  46. Title                                    : Little.Women.2018.1080p.WEB-DL.DD5.1.H264-FGT
  47. Language                                 : English
  48. Service kind                             : Complete Main
  49. Default                                  : Yes
  50. Forced                                   : No

  51. Menu
  52. 00:00:00.000                             : en:1
  53. 00:05:08.725                             : en:2
  54. 00:11:24.767                             : en:3
  55. 00:15:49.948                             : en:4
  56. 00:19:33.713                             : en:5
  57. 00:24:58.829                             : en:6
  58. 00:30:32.787                             : en:7
  59. 00:35:37.549                             : en:8
  60. 00:40:47.190                             : en:9
  61. 00:45:27.177                             : en:10
  62. 00:50:23.805                             : en:11
  63. 00:55:12.551                             : en:12
  64. 01:01:19.668                             : en:13
  65. 01:08:30.305                             : en:14
  66. 01:16:18.940                             : en:15
  67. 01:21:36.048                             : en:16
  68. 01:27:14.678                             : en:17
  69. 01:32:05.719                             : en:18
  70. 01:36:50.878                             : en:19
  71. 01:42:03.189                             : en:20
  72. 01:45:53.878                             : en:21
  73. 01:48:28.657                             : en:22
复制代码

小妇人/小女人 Little.Women.2018.1080p.WEB-DL.DD5.1.H264-FGT 4.41GB-2.png 小妇人/小女人 Little.Women.2018.1080p.WEB-DL.DD5.1.H264-FGT 4.41GB-3.png 小妇人/小女人 Little.Women.2018.1080p.WEB-DL.DD5.1.H264-FGT 4.41GB-4.png






回复

使用道具 举报

蓝光币
144
发表于 2020-2-16 19:52:25 | 显示全部楼层
o my god ,又没蓝光比了
回复 支持 反对

使用道具 举报

蓝光币
10
发表于 2020-4-11 15:38:53 | 显示全部楼层
有中文字幕吗?
回复 支持 反对

使用道具 举报

蓝光币
18
发表于 2020-12-4 20:52:51 | 显示全部楼层
楼主发贴辛苦了,谢谢楼主分享!我觉得蓝光电影网是注册对了!
回复 支持 反对

使用道具 举报

蓝光币
16
发表于 2021-10-5 10:40:46 | 显示全部楼层
楼主发贴辛苦了,谢谢楼主分享!我觉得蓝光电影网是注册对了!
回复 支持 反对

使用道具 举报

懒得打字嘛,点击右侧快捷回复 【右侧内容,后台自定义】
您需要登录后才可以回帖 登录 | 立即加入

本版积分规则

Archiver|小黑屋| 蓝光电影网 |网站地图

Copyright © 2021 Comsenz Inc. Powered by 蓝光电影网

蓝光电影网

本站内容由用户自主分享和转载自互联网,转载目的在于传递更多信息,并不代表本网赞同其观点和对其真实性负责。

如有侵权、违反国家法律政策行为,请联系我们,我们会第一时间及时清除和处理!

举报反馈邮箱:[email protected]

快速回复 返回顶部 返回列表