找回密码

蓝光电影网

查看: 341|回复: 1

[剧情] 三室带厨浴 Move.2012.720p.BluRay.x264-USURY 5.46GB

[复制链接]
蓝光币
1020
发表于 2020-2-2 17:21:52 | 显示全部楼层 |阅读模式
三室带厨浴 Move.2012.720p.BluRay.x264-USURY 5.46GB-1.png

译  名 三室带厨浴 / 3 Zimmer / Küche / Bad
片  名 Drei Zimmer / Küche / Bad
年  代 2012
产  地 德国
类  别 剧情
语  言 德语
上映日期 2012-10-04
IMDb评分  6.7/10 from 1237 users
IMDb链接  https://www.imdb.com/title/tt2208144
豆瓣评分 7.6/10 from 231 users
豆瓣链接 https://movie.douban.com/subject/11602883/
片  长 118分钟
导  演 Dietrich Brüggemann
编  剧 Dietrich Brüggemann / 安娜·布鲁格曼 Anna Brüggemann
主  演 雅各布·马特施恩茨 Jacob Matschenz
       Katharina Spiering
       安娜·布鲁格曼 Anna Brüggemann


标  签 德国 | 德国电影 | 2012 | 青春 | 剧情 | 长大 | 恋爱 | 德语

简  介  

  凭仗《十字车站》拿下柏林银熊编剧奖的德国导演迪特里希·布鲁格曼的前作,照旧是和妹妹安娜·布鲁格曼合作编剧,且后者也担任演员一职。影片作为诙谐的群像影片,以合租公寓的搬场为起点,关注的是一全年之内柏林的一群青年人的生活,重点关注他们彼其间的关系变化。
  1. Video
  2. ID                                       : 1
  3. Format                                   : AVC
  4. Format/Info                              : Advanced Video Codec
  5. Format profile                           : [email protected]
  6. Format settings                          : CABAC / 5 Ref Frames
  7. Format settings, CABAC                   : Yes
  8. Format settings, Reference frames        : 5 frames
  9. Codec ID                                 : V_MPEG4/ISO/AVC
  10. Duration                                 : 1 h 58 min
  11. Bit rate                                 : 5 088 kb/s
  12. Width                                    : 1 280 pixels
  13. Height                                   : 544 pixels
  14. Display aspect ratio                     : 2.35:1
  15. Frame rate mode                          : Constant
  16. Frame rate                               : 23.976 (24000/1001) FPS
  17. Color space                              : YUV
  18. Chroma subsampling                       : 4:2:0
  19. Bit depth                                : 8 bits
  20. Scan type                                : Progressive
  21. Bits/(Pixel*Frame)                       : 0.305
  22. Stream size                              : 4.21 GiB (77%)
  23. Writing library                          : x264 core 157 r2969 d4099dd
  24. Encoding settings                        : cabac=1 / ref=5 / deblock=1:-3:-3 / analyse=0x3:0x133 / me=umh / subme=9 / psy=1 / psy_rd=1.00:0.00 / mixed_ref=1 / me_range=16 / chroma_me=1 / trellis=2 / 8x8dct=1 / cqm=0 / deadzone=21,11 / fast_pskip=0 / chroma_qp_offset=-2 / threads=17 / lookahead_threads=1 / sliced_threads=0 / nr=0 / decimate=1 / interlaced=0 / bluray_compat=0 / constrained_intra=0 / bframes=3 / b_pyramid=2 / b_adapt=1 / b_bias=0 / direct=3 / weightb=1 / open_gop=0 / weightp=2 / keyint=240 / keyint_min=24 / scenecut=40 / intra_refresh=0 / rc_lookahead=50 / rc=2pass / mbtree=1 / bitrate=5088 / ratetol=1.0 / qcomp=0.60 / qpmin=0 / qpmax=69 / qpstep=4 / cplxblur=20.0 / qblur=0.5 / ip_ratio=1.40 / aq=1:1.00
  25. Language                                 : English
  26. Default                                  : Yes
  27. Forced                                   : No

  28. Audio
  29. ID                                       : 2
  30. Format                                   : DTS
  31. Format/Info                              : Digital Theater Systems
  32. Codec ID                                 : A_DTS
  33. Duration                                 : 1 h 58 min
  34. Bit rate mode                            : Constant
  35. Bit rate                                 : 1 509 kb/s
  36. Channel(s)                               : 6 channels
  37. Channel layout                           : C L R Ls Rs LFE
  38. Sampling rate                            : 48.0 kHz
  39. Frame rate                               : 93.750 FPS (512 SPF)
  40. Bit depth                                : 24 bits
  41. Compression mode                         : Lossy
  42. Stream size                              : 1.25 GiB (23%)
  43. Language                                 : German
  44. Default                                  : Yes
  45. Forced                                   : No

  46. Text
  47. ID                                       : 3
  48. Format                                   : UTF-8
  49. Codec ID                                 : S_TEXT/UTF8
  50. Codec ID/Info                            : UTF-8 Plain Text
  51. Duration                                 : 1 h 53 min
  52. Bit rate                                 : 50 b/s
  53. Count of elements                        : 1089
  54. Stream size                              : 42.4 KiB (0%)
  55. Title                                    : English
  56. Language                                 : English
  57. Default                                  : Yes
  58. Forced                                   : Yes

  59. Menu
  60. 00:00:00.000                             : en:00:00:00.000
  61. 00:11:27.020                             : en:00:11:27.020
  62. 00:24:59.957                             : en:00:24:59.957
  63. 00:38:37.941                             : en:00:38:37.941
  64. 00:48:35.955                             : en:00:48:35.955
  65. 01:00:33.004                             : en:01:00:33.004
  66. 01:14:31.926                             : en:01:14:31.926
  67. 01:27:26.908                             : en:01:27:26.908
  68. 01:43:12.895                             : en:01:43:12.895
  69. 01:55:19.913                             : en:01:55:19.913
复制代码

三室带厨浴 Move.2012.720p.BluRay.x264-USURY 5.46GB-2.png






回复

使用道具 举报

懒得打字嘛,点击右侧快捷回复 【右侧内容,后台自定义】
您需要登录后才可以回帖 登录 | 立即加入

本版积分规则

Archiver|小黑屋| 蓝光电影网 |网站地图

Copyright © 2021 Comsenz Inc. Powered by 蓝光电影网

蓝光电影网

本站内容由用户自主分享和转载自互联网,转载目的在于传递更多信息,并不代表本网赞同其观点和对其真实性负责。

如有侵权、违反国家法律政策行为,请联系我们,我们会第一时间及时清除和处理!

举报反馈邮箱:[email protected]

快速回复 返回顶部 返回列表