找回密码

蓝光电影网

查看: 557|回复: 1

[剧情] 悲哀于我 Oh.Woe.Is.Me.1993.1080p.BluRay.x264-USURY 8.75GB

[复制链接]
蓝光币
1022
发表于 2020-2-2 17:30:32 | 显示全部楼层 |阅读模式
悲痛于我 Oh.Woe.Is.Me.1993.1080p.BluRay.x264-USURY 8.75GB-1.png

译  名 悲痛于我 / Alas for Me / 算我倒霉 / 算我唔好彩
片  名 Hélas pour moi
年  代 1993
产  地 法国 / 瑞士
类  别 剧情 / 笑剧
语  言 法语
上映日期 1993-09-08
IMDb评分  6.3/10 from 1046 users
IMDb链接  https://www.imdb.com/title/tt0107175
豆瓣评分 7.4/10 from 502 users
豆瓣链接 https://movie.douban.com/subject/1303469/
片  长 95 分钟
导  演 Jean-Luc Godard
编  剧 Jean-Luc Godard
主  演 Gérard Depardieu
       Laurence Masliah
       Bernard Verley
       Aude Amiot


标  签 法国 | 戈达尔 | 新浪潮 | 让-吕克·戈达尔 | 法国电影 | Jean-Luc_Godard | JeanLucGodard | 1990s

简  介  

  戈达尔這部近作的原始構想,來自偉大的義大利詩人李奧巴迪,他曾說過:「在明天,人類的權力只集合在數個人的手裡,我們天天目擊分歧的事變,但是卻不知根由。整個天下活像雜種奥秘機制下推動的機器‥此外,這部電影也获得希臘神話的啟發,包括普羅特斯、莫里哀等人,都寫過的「安菲特利昂」的故事。

获奖情况  

  第50届威尼斯电影节(1993)
  主比赛单元 金狮奖 (提名) 让-吕克·戈达尔
  1. Video
  2. ID                                       : 1
  3. Format                                   : AVC
  4. Format/Info                              : Advanced Video Codec
  5. Format profile                           : [email protected]
  6. Format settings                          : CABAC / 4 Ref Frames
  7. Format settings, CABAC                   : Yes
  8. Format settings, Reference frames        : 4 frames
  9. Codec ID                                 : V_MPEG4/ISO/AVC
  10. Duration                                 : 1 h 23 min
  11. Bit rate                                 : 13.5 Mb/s
  12. Width                                    : 1 440 pixels
  13. Height                                   : 1 080 pixels
  14. Display aspect ratio                     : 4:3
  15. Frame rate mode                          : Constant
  16. Frame rate                               : 23.976 (24000/1001) FPS
  17. Color space                              : YUV
  18. Chroma subsampling                       : 4:2:0
  19. Bit depth                                : 8 bits
  20. Scan type                                : Progressive
  21. Bits/(Pixel*Frame)                       : 0.361
  22. Stream size                              : 7.86 GiB (90%)
  23. Writing library                          : x264 core 157 r2969 d4099dd
  24. Encoding settings                        : cabac=1 / ref=4 / deblock=1:-3:-3 / analyse=0x3:0x133 / me=umh / subme=9 / psy=1 / psy_rd=1.00:0.00 / mixed_ref=1 / me_range=16 / chroma_me=1 / trellis=2 / 8x8dct=1 / cqm=0 / deadzone=21,11 / fast_pskip=0 / chroma_qp_offset=-2 / threads=18 / lookahead_threads=1 / sliced_threads=0 / nr=0 / decimate=1 / interlaced=0 / bluray_compat=0 / constrained_intra=0 / bframes=3 / b_pyramid=2 / b_adapt=1 / b_bias=0 / direct=3 / weightb=1 / open_gop=0 / weightp=2 / keyint=240 / keyint_min=24 / scenecut=40 / intra_refresh=0 / rc_lookahead=50 / rc=2pass / mbtree=1 / bitrate=13467 / ratetol=1.0 / qcomp=0.60 / qpmin=0 / qpmax=69 / qpstep=4 / cplxblur=20.0 / qblur=0.5 / ip_ratio=1.40 / aq=1:1.00
  25. Language                                 : English
  26. Default                                  : Yes
  27. Forced                                   : No

  28. Audio
  29. ID                                       : 2
  30. Format                                   : DTS
  31. Format/Info                              : Digital Theater Systems
  32. Codec ID                                 : A_DTS
  33. Duration                                 : 1 h 23 min
  34. Bit rate mode                            : Constant
  35. Bit rate                                 : 1 509 kb/s
  36. Channel(s)                               : 2 channels
  37. Channel layout                           : L R
  38. Sampling rate                            : 48.0 kHz
  39. Frame rate                               : 93.750 FPS (512 SPF)
  40. Bit depth                                : 24 bits
  41. Compression mode                         : Lossy
  42. Stream size                              : 902 MiB (10%)
  43. Language                                 : French
  44. Default                                  : Yes
  45. Forced                                   : No

  46. Text
  47. ID                                       : 3
  48. Format                                   : UTF-8
  49. Codec ID                                 : S_TEXT/UTF8
  50. Codec ID/Info                            : UTF-8 Plain Text
  51. Duration                                 : 1 h 22 min
  52. Bit rate                                 : 54 b/s
  53. Count of elements                        : 1174
  54. Stream size                              : 33.0 KiB (0%)
  55. Title                                    : English
  56. Language                                 : English
  57. Default                                  : Yes
  58. Forced                                   : Yes

  59. Menu
  60. 00:00:00.000                             : en:00:00:00.000
  61. 00:08:26.506                             : en:00:08:26.506
  62. 00:21:21.363                             : en:00:21:21.363
  63. 00:27:34.152                             : en:00:27:34.152
  64. 00:32:40.625                             : en:00:32:40.625
  65. 00:43:08.252                             : en:00:43:08.252
  66. 00:54:31.101                             : en:00:54:31.101
  67. 01:00:48.562                             : en:01:00:48.562
  68. 01:07:54.487                             : en:01:07:54.487
  69. 01:17:43.200                             : en:01:17:43.200
复制代码

悲痛于我 Oh.Woe.Is.Me.1993.1080p.BluRay.x264-USURY 8.75GB-2.png






回复

使用道具 举报

懒得打字嘛,点击右侧快捷回复 【右侧内容,后台自定义】
您需要登录后才可以回帖 登录 | 立即加入

本版积分规则

Archiver|小黑屋| 蓝光电影网 |网站地图

Copyright © 2021 Comsenz Inc. Powered by 蓝光电影网

蓝光电影网

本站内容由用户自主分享和转载自互联网,转载目的在于传递更多信息,并不代表本网赞同其观点和对其真实性负责。

如有侵权、违反国家法律政策行为,请联系我们,我们会第一时间及时清除和处理!

举报反馈邮箱:[email protected]

快速回复 返回顶部 返回列表