找回密码

蓝光电影网

查看: 1408|回复: 2

[动作] 邻里的人们 The.Villagers.2018.KOREAN.1080p.BluRay.x264.DD5.1-WiKi 8.11GB

[复制链接]
蓝光币
1020
发表于 2020-2-3 14:55:54 | 显示全部楼层 |阅读模式
邻里的人们 The.Villagers.2018.KOREAN.1080p.BluRay.x264.DD5.1-WiKi 8.11GB-1.png

译  名 邻里的人们 / Ordinary People / The Villagers / 乡亲们 / 呆货 / 恶邻结构(台) / ???
片  名 ?????
年  代 2018
产  地 韩国
类  别 行动 / 悬疑
语  言 韩语
上映日期 2018-11-07(韩国)
IMDb评分  5.8/10 from 193 users
IMDb链接  https://www.imdb.com/title/tt9174334
豆瓣评分 6.4/10 from 6281 users
豆瓣链接 https://movie.douban.com/subject/27091624/
片  长 99分钟
导  演 林镇秀 Jin-soon Lim
主  演 马东锡 Tong-Seok Ma
       金赛纶 Sae-ron Kim
       李相烨 Sang-Yeob Lee
       陈善圭 Jin Sun-kyu
       张光 Gwang Jang
       申世辉 Shin Se-hwi
       吴熙俊 Hee-joon Oh
       裴真雅 Jin-ah Bae


标  签 韩国 | 犯罪 | 悬疑 | 行动 | 校园 | 社会 | 剧情 | 人性

简  介  

  基哲(马东石饰演)被派遣到乡下高中担任体育教员并兼任训导主任,不外,基哲一到黉舍便立即感觉事有蹊跷,不但黉舍职员散发出一股诡谲的氛围,镇上居民也似乎隐藏着什么不成告人的奥秘。某日,一位女门生失落了,但大师却默不吭声,恍如工作从未发生过,只要女门生的朋友宥贞(金赛纶饰),深信好友遭人绑架,不放弃清查。 女门生消失的证据,正在一点点被抹去,基哲和宥贞这对师生,该若何找失事务背后的骇人真相,救出失落女门生呢?
  1. Video
  2. ID                                       : 1
  3. Format                                   : AVC
  4. Format/Info                              : Advanced Video Codec
  5. Format profile                           : [email protected]
  6. Format settings                          : CABAC / 5 Ref Frames
  7. Format settings, CABAC                   : Yes
  8. Format settings, Reference frames        : 5 frames
  9. Codec ID                                 : V_MPEG4/ISO/AVC
  10. Duration                                 : 1 h 39 min
  11. Bit rate                                 : 11.0 Mb/s
  12. Width                                    : 1 920 pixels
  13. Height                                   : 804 pixels
  14. Display aspect ratio                     : 2.40:1
  15. Frame rate mode                          : Constant
  16. Frame rate                               : 23.976 (24000/1001) FPS
  17. Color space                              : YUV
  18. Chroma subsampling                       : 4:2:0
  19. Bit depth                                : 8 bits
  20. Scan type                                : Progressive
  21. Bits/(Pixel*Frame)                       : 0.297
  22. Stream size                              : 7.63 GiB (94%)
  23. Writing library                          : x264 core 130 r2273 b3065e6
  24. Encoding settings                        : cabac=1 / ref=5 / deblock=1:-3:-3 / analyse=0x3:0x113 / me=umh / subme=11 / psy=1 / psy_rd=1.00:0.00 / mixed_ref=1 / me_range=32 / chroma_me=1 / trellis=2 / 8x8dct=1 / cqm=0 / deadzone=21,11 / fast_pskip=0 / chroma_qp_offset=-4 / threads=12 / lookahead_threads=2 / sliced_threads=0 / nr=0 / decimate=0 / interlaced=0 / bluray_compat=0 / constrained_intra=0 / bframes=8 / b_pyramid=2 / b_adapt=2 / b_bias=0 / direct=3 / weightb=1 / open_gop=0 / weightp=2 / keyint=250 / keyint_min=23 / scenecut=40 / intra_refresh=0 / rc=2pass / mbtree=0 / bitrate=11000 / ratetol=1.0 / qcomp=0.60 / qpmin=0 / qpmax=69 / qpstep=4 / cplxblur=20.0 / qblur=0.5 / ip_ratio=1.40 / pb_ratio=1.30 / aq=1:0.85
  25. Language                                 : English
  26. Default                                  : Yes
  27. Forced                                   : No

  28. Audio
  29. ID                                       : 2
  30. Format                                   : AC-3
  31. Format/Info                              : Audio Coding 3
  32. Commercial name                          : Dolby Digital
  33. Codec ID                                 : A_AC3
  34. Duration                                 : 1 h 39 min
  35. Bit rate mode                            : Constant
  36. Bit rate                                 : 640 kb/s
  37. Channel(s)                               : 6 channels
  38. Channel layout                           : L R C LFE Ls Rs
  39. Sampling rate                            : 48.0 kHz
  40. Frame rate                               : 31.250 FPS (1536 SPF)
  41. Bit depth                                : 16 bits
  42. Compression mode                         : Lossy
  43. Stream size                              : 455 MiB (5%)
  44. Title                                    : 韩语
  45. Language                                 : Korean
  46. Service kind                             : Complete Main
  47. Default                                  : Yes
  48. Forced                                   : No

  49. Text #1
  50. ID                                       : 3
  51. Format                                   : ASS
  52. Codec ID                                 : S_TEXT/ASS
  53. Codec ID/Info                            : Advanced Sub Station Alpha
  54. Duration                                 : 1 h 32 min
  55. Bit rate                                 : 150 b/s
  56. Count of elements                        : 1116
  57. Compression mode                         : Lossless
  58. Stream size                              : 102 KiB (0%)
  59. Title                                    : chs
  60. Language                                 : Chinese
  61. Default                                  : Yes
  62. Forced                                   : No

  63. Text #2
  64. ID                                       : 4
  65. Format                                   : UTF-8
  66. Codec ID                                 : S_TEXT/UTF8
  67. Codec ID/Info                            : UTF-8 Plain Text
  68. Duration                                 : 1 h 35 min
  69. Bit rate                                 : 54 b/s
  70. Count of elements                        : 1218
  71. Stream size                              : 37.9 KiB (0%)
  72. Language                                 : English
  73. Default                                  : No
  74. Forced                                   : Yes
复制代码

邻里的人们 The.Villagers.2018.KOREAN.1080p.BluRay.x264.DD5.1-WiKi 8.11GB-2.png 邻里的人们 The.Villagers.2018.KOREAN.1080p.BluRay.x264.DD5.1-WiKi 8.11GB-3.png 邻里的人们 The.Villagers.2018.KOREAN.1080p.BluRay.x264.DD5.1-WiKi 8.11GB-4.png






回复

使用道具 举报

蓝光币
768
发表于 2020-2-3 16:24:02 | 显示全部楼层
谢谢楼主无私分享。
回复 支持 反对

使用道具 举报

蓝光币
7
发表于 2021-8-2 01:09:56 | 显示全部楼层
楼主发贴辛苦了,谢谢楼主分享!我觉得蓝光电影网是注册对了!
回复 支持 反对

使用道具 举报

懒得打字嘛,点击右侧快捷回复 【右侧内容,后台自定义】
您需要登录后才可以回帖 登录 | 立即加入

本版积分规则

Archiver|小黑屋| 蓝光电影网 |网站地图

Copyright © 2021 Comsenz Inc. Powered by 蓝光电影网

蓝光电影网

本站内容由用户自主分享和转载自互联网,转载目的在于传递更多信息,并不代表本网赞同其观点和对其真实性负责。

如有侵权、违反国家法律政策行为,请联系我们,我们会第一时间及时清除和处理!

举报反馈邮箱:[email protected]

快速回复 返回顶部 返回列表