找回密码

蓝光电影网

查看: 1941|回复: 4

[剧情] 极速车王 Ford.v.Ferrari.2019.1080p.BluRay.x264.TrueHD.7.1.Atmos-SWTYBLZ 21.56GB

[复制链接]
蓝光币
1022
发表于 2020-2-4 11:53:40 | 显示全部楼层 |阅读模式
极速车王 Ford.v.Ferrari.2019.1080p.BluRay.x264.TrueHD.7.1.Atmos-SWTYBLZ 21.56GB-1.png

译  名 极速车王 / Go Like Hell / Kings of the Road / Le Mans '66 / 天堂驾驶 / 极速之王 / 极速传奇:褔特决战法拉利(港) / 福特大战法拉利 / 赛道狂人(台)
片  名 Ford v Ferrari
年  代 2019
产  地 美国 / 法国
类  别 剧情 / 列传 / 活动
语  言 英语 / 意大利语 / 法语 / 日语
上映日期 2019-08-30(特柳赖德电影节) / 2019-11-15(美国)
IMDb评分  8.2/10 from 99717 users
IMDb链接  https://www.imdb.com/title/tt1950186
豆瓣评分 8.5/10 from 31818 users
豆瓣链接 https://movie.douban.com/subject/6538866/
片  长 152分钟
导  演 詹姆斯·曼高德 James Mangold
编  剧 詹姆斯·曼高德 James Mangold / 杰斯·巴特沃斯 Jez Butterworth / 约翰-亨利·巴特沃斯 John-Henry Butterworth / 贾森·凯勒 Jason Keller / A·J·拜梅 A.J. Baime
主  演 马特·达蒙 Matt Damon
       克里斯蒂安·贝尔 Christian Bale
       乔·博恩瑟 Jon Bernthal
       诺亚·尤佩 Noah Jupe
       玛丽萨·佩特罗 Marisa Petroro
       凯特瑞娜·巴尔夫 Caitriona Balfe
       乔什·卢卡斯 Josh Lucas
       雷·迈克金农 Ray McKinnon
       约翰·约瑟夫·菲尔德 JJ Feild
       崔西·莱茨 Tracy Letts
       华莱士·朗翰 Wallace Langham
       乔纳森·拉帕格里拉 Jonathan LaPaglia
       斯特凡 Stefania Spampinato
       鲁道夫·马丁 Rudolf Martin
       拉奇兰·布坎南 Lachlan Buchanan
       瓦德·霍尔顿 Ward Horton
       肖恩·卡里甘 Sean Carrigan
       克里斯托弗·达尔加 Christopher Darga
       亚当·梅菲尔德 Adam Mayfield
       乔瓦尼索罗菲瓦 Giovanni Cirfiera
       乔·威廉森 Joe Williamson
       本杰明·里格比 Benjamin Rigby
       杰克·麦克马伦 Jack McMullen
       保罗·福克斯 Paul Fox
       雷莫·吉罗内 Remo Girone
       德鲁·劳施 Drew Rausch
       朱利安·米勒 Julian Miller
       艾拉姆·奥里安 Aylam Orian
       埃姆利·贝赫什蒂 Emil Beheshti
       蒂芙妮·伊冯娜·考克斯 Tiffany Yvonne Cox
       达林·库珀 Darin Cooper
       科拉多·因韦尔尼齐 Corrado Invernizzi
       特洛伊·迪林格 Troy Dillinger
       彼得·阿佩塞拉 Peter Arpesella
       斯凯勒·马歇尔 Skyler Marshall


标  签 赛车 | 列传 | 美国 | 实在事务改编 | 2019 | 剧情 | 活动 | 行动

简  介  

  基于实在故事,聚焦由汽车设想师卡罗尔·谢尔比率领的一队美国工程师、设想师,以及他旗下的英国车手肯·迈尔斯,亨利·福特二世要求谢尔比打造一辆全新的赛车,希望能在1966年的勒芒天下锦标赛上打败持久占主导职位的法拉利。终极福特GT40在勒芒24小时耐力赛中成功击败法拉利,并连任了1967和1968年的冠军。

获奖情况  

  第92届奥斯卡金像奖(2020)
  最好影片(提名)
  最好剪辑(提名) 迈克尔·麦卡斯克 / 安德鲁·巴克兰
  最好混音(提名) David Giammarco / 史蒂文·莫罗 / 保罗·马瑟
  最好音效剪辑(提名)

  第77届金球奖(2020)
  电影类 剧情片最好男配角(提名) 克里斯蒂安·贝尔

  第73届英国电影学院奖(2020)
  电影奖 最好摄影(提名) 芬顿·帕帕迈可
  电影奖 最好剪辑(提名) 迈克尔·麦卡斯克 / 安德鲁·巴克兰
  电影奖 最好音效(提名)

  第26届美国演员工会奖(2020)
  电影奖 最好男配角(提名) 克里斯蒂安·贝尔
  电影最好特技群戏(提名)

  第31届美国制片野生会奖(2020)
  最好电影制片人奖(提名)

  第34届美国摄影协会奖(2020)
  电影长片最好摄影(提名) 芬顿·帕帕迈可

  第70届美国剪辑工会奖(2020)
  剧情片最好剪辑(提名) 迈克尔·麦卡斯克 / 安德鲁·巴克兰

  第24届美国艺术指导工会奖(2020)
  电影奖 最好历史电影艺术指导(提名) 弗朗索瓦·奥杜伊

  第67届美国音效剪辑协会奖(2020)
  金卷轴奖 最好电影音效剪辑
  金卷轴奖 最好电影对白剪辑(提名)

  第18届美国视觉结果协会奖(2020)
  最好电影帮助视觉结果(提名)

  第56届美国声音结果协会奖(2020)
  真人电影最好音效

  第91届美国国家批评协会奖(2019)
  年度佳片

  第25届美国批评家挑选电影奖(2020)
  最好影片(提名)
  最好行动片(提名)
  最好摄影(提名)
  最好剪辑(提名)
  最好视觉结果(提名)

  第24届金卫星奖(2020)
  电影部分 最好剧情片(提名)
  电影部分 最好导演 詹姆斯·曼高德
  电影部分 剧情片最好男配角 克里斯蒂安·贝尔
  电影部分 最好原创剧本(提名) 杰斯·巴特沃斯 / 约翰-亨利·巴特沃斯 / 贾森·凯勒
  电影部分 最好原创配乐(提名)
  电影部分 最好摄影(提名)
  电影部分 最好视觉结果(提名)
  电影部分 最好剪辑
  电影部分 最好音效
  电影部分 最好美术指导(提名)

  第23届好莱坞电影奖(2019)
  年度导演 詹姆斯·曼高德
  年度剪辑 迈克尔·麦卡斯克 / 安德鲁·巴克兰
  年度音效 David Giammarco / Donald Sylvester / 史蒂文·莫罗 / 保罗·马瑟

  第18届华盛顿影评人协会奖(2019)
  最好剪辑

  第40届伦敦影评人协会奖(2020)
  年度英国/爱尔兰小演员(提名) 诺亚·尤佩

  第23届美国在线影评人协会奖(2020)
  最好剪辑(提名) 迈克尔·麦卡斯克 / 安德鲁·巴克兰
  1. Video
  2. ID                                       : 1
  3. Format                                   : AVC
  4. Format/Info                              : Advanced Video Codec
  5. Format profile                           : [email protected]
  6. Format settings                          : CABAC / 5 Ref Frames
  7. Format settings, CABAC                   : Yes
  8. Format settings, Reference frames        : 5 frames
  9. Codec ID                                 : V_MPEG4/ISO/AVC
  10. Duration                                 : 2 h 32 min
  11. Bit rate                                 : 14.9 Mb/s
  12. Width                                    : 1 920 pixels
  13. Height                                   : 804 pixels
  14. Display aspect ratio                     : 2.40:1
  15. Frame rate mode                          : Constant
  16. Frame rate                               : 23.976 (24000/1001) FPS
  17. Color space                              : YUV
  18. Chroma subsampling                       : 4:2:0
  19. Bit depth                                : 8 bits
  20. Scan type                                : Progressive
  21. Bits/(Pixel*Frame)                       : 0.401
  22. Stream size                              : 15.8 GiB (73%)
  23. Title                                    : Ford.v.Ferrari.2019.1080p.BluRay.x264.TrueHD.7.1.Atmos-SWTYBLZ
  24. Writing library                          : x264 core 157 r2935 545de2f
  25. Encoding settings                        : cabac=1 / ref=5 / deblock=1:-1:-1 / analyse=0x3:0x133 / me=umh / subme=10 / psy=1 / psy_rd=1.00:0.15 / mixed_ref=1 / me_range=48 / chroma_me=1 / trellis=2 / 8x8dct=1 / cqm=0 / deadzone=21,11 / fast_pskip=1 / chroma_qp_offset=-3 / threads=25 / lookahead_threads=4 / sliced_threads=0 / nr=0 / decimate=0 / interlaced=0 / bluray_compat=0 / constrained_intra=0 / bframes=8 / b_pyramid=2 / b_adapt=2 / b_bias=0 / direct=3 / weightb=1 / open_gop=0 / weightp=2 / keyint=250 / keyint_min=23 / scenecut=40 / intra_refresh=0 / rc_lookahead=60 / rc=crf / mbtree=1 / crf=15.0 / qcomp=0.60 / qpmin=0 / qpmax=69 / qpstep=4 / ip_ratio=1.40 / aq=1:1.00
  26. Default                                  : Yes
  27. Forced                                   : No

  28. Audio #1
  29. ID                                       : 2
  30. Format                                   : MLP FBA 16-ch
  31. Format/Info                              : Meridian Lossless Packing FBA with 16-channel presentation
  32. Commercial name                          : Dolby TrueHD with Dolby Atmos
  33. Codec ID                                 : A_TRUEHD
  34. Duration                                 : 2 h 32 min
  35. Bit rate mode                            : Variable
  36. Bit rate                                 : 4 561 kb/s
  37. Maximum bit rate                         : 9 933 kb/s
  38. Channel(s)                               : 8 channels
  39. Channel layout                           : L R C LFE Ls Rs Lb Rb
  40. Sampling rate                            : 48.0 kHz
  41. Frame rate                               : 1 200.000 FPS (40 SPF)
  42. Compression mode                         : Lossless
  43. Stream size                              : 4.86 GiB (23%)
  44. Title                                    : Ford.v.Ferrari.2019.1080p.BluRay.x264.TrueHD.7.1.Atmos-SWTYBLZ
  45. Language                                 : English
  46. Default                                  : Yes
  47. Forced                                   : No
  48. Number of dynamic objects                : 13
  49. Bed channel count                        : 1 channel
  50. Bed channel configuration                : LFE

  51. Audio #2
  52. ID                                       : 3
  53. Format                                   : AC-3
  54. Format/Info                              : Audio Coding 3
  55. Commercial name                          : Dolby Digital
  56. Codec ID                                 : A_AC3
  57. Duration                                 : 2 h 32 min
  58. Bit rate mode                            : Constant
  59. Bit rate                                 : 640 kb/s
  60. Channel(s)                               : 6 channels
  61. Channel layout                           : L R C LFE Ls Rs
  62. Sampling rate                            : 48.0 kHz
  63. Frame rate                               : 31.250 FPS (1536 SPF)
  64. Bit depth                                : 16 bits
  65. Compression mode                         : Lossy
  66. Stream size                              : 699 MiB (3%)
  67. Title                                    : Ford.v.Ferrari.2019.1080p.BluRay.x264.TrueHD.7.1.Atmos-SWTYBLZ
  68. Language                                 : English
  69. Service kind                             : Complete Main
  70. Default                                  : No
  71. Forced                                   : No

  72. Text #1
  73. ID                                       : 4
  74. Format                                   : UTF-8
  75. Codec ID                                 : S_TEXT/UTF8
  76. Codec ID/Info                            : UTF-8 Plain Text
  77. Duration                                 : 1 h 24 min
  78. Bit rate                                 : 0 b/s
  79. Count of elements                        : 9
  80. Stream size                              : 304 Bytes (0%)
  81. Title                                    : English-FORCED-SRT
  82. Language                                 : English
  83. Default                                  : Yes
  84. Forced                                   : Yes

  85. Text #2
  86. ID                                       : 5
  87. Format                                   : UTF-8
  88. Codec ID                                 : S_TEXT/UTF8
  89. Codec ID/Info                            : UTF-8 Plain Text
  90. Duration                                 : 2 h 32 min
  91. Bit rate                                 : 66 b/s
  92. Count of elements                        : 2498
  93. Stream size                              : 74.0 KiB (0%)
  94. Title                                    : English-SRT
  95. Language                                 : English
  96. Default                                  : No
  97. Forced                                   : No

  98. Text #3
  99. ID                                       : 6
  100. Format                                   : PGS
  101. Muxing mode                              : zlib
  102. Codec ID                                 : S_HDMV/PGS
  103. Codec ID/Info                            : Picture based subtitle format used on BDs/HD-DVDs
  104. Duration                                 : 1 h 24 min
  105. Bit rate                                 : 158 b/s
  106. Count of elements                        : 18
  107. Stream size                              : 97.7 KiB (0%)
  108. Title                                    : English-FORCED-PGS
  109. Language                                 : English
  110. Default                                  : No
  111. Forced                                   : No

  112. Text #4
  113. ID                                       : 7
  114. Format                                   : PGS
  115. Muxing mode                              : zlib
  116. Codec ID                                 : S_HDMV/PGS
  117. Codec ID/Info                            : Picture based subtitle format used on BDs/HD-DVDs
  118. Duration                                 : 2 h 32 min
  119. Bit rate                                 : 49.8 kb/s
  120. Count of elements                        : 4996
  121. Stream size                              : 54.3 MiB (0%)
  122. Title                                    : English-PGS
  123. Language                                 : English
  124. Default                                  : No
  125. Forced                                   : No

  126. Text #5
  127. ID                                       : 8
  128. Format                                   : PGS
  129. Muxing mode                              : zlib
  130. Codec ID                                 : S_HDMV/PGS
  131. Codec ID/Info                            : Picture based subtitle format used on BDs/HD-DVDs
  132. Duration                                 : 2 h 31 min
  133. Bit rate                                 : 20.6 kb/s
  134. Count of elements                        : 4136
  135. Stream size                              : 22.4 MiB (0%)
  136. Title                                    : Chinese-PGS
  137. Language                                 : Chinese
  138. Default                                  : No
  139. Forced                                   : No

  140. Text #6
  141. ID                                       : 9
  142. Format                                   : PGS
  143. Muxing mode                              : zlib
  144. Codec ID                                 : S_HDMV/PGS
  145. Codec ID/Info                            : Picture based subtitle format used on BDs/HD-DVDs
  146. Duration                                 : 2 h 31 min
  147. Bit rate                                 : 28.3 kb/s
  148. Count of elements                        : 4158
  149. Stream size                              : 30.6 MiB (0%)
  150. Title                                    : Chinese-PGS
  151. Language                                 : Chinese
  152. Default                                  : No
  153. Forced                                   : No

  154. Text #7
  155. ID                                       : 10
  156. Format                                   : PGS
  157. Muxing mode                              : zlib
  158. Codec ID                                 : S_HDMV/PGS
  159. Codec ID/Info                            : Picture based subtitle format used on BDs/HD-DVDs
  160. Duration                                 : 2 h 31 min
  161. Bit rate                                 : 34.2 kb/s
  162. Count of elements                        : 4130
  163. Stream size                              : 37.0 MiB (0%)
  164. Title                                    : French-PGS
  165. Language                                 : French
  166. Default                                  : No
  167. Forced                                   : No

  168. Text #8
  169. ID                                       : 11
  170. Format                                   : PGS
  171. Muxing mode                              : zlib
  172. Codec ID                                 : S_HDMV/PGS
  173. Codec ID/Info                            : Picture based subtitle format used on BDs/HD-DVDs
  174. Duration                                 : 2 h 31 min
  175. Bit rate                                 : 22.4 kb/s
  176. Count of elements                        : 4054
  177. Stream size                              : 24.2 MiB (0%)
  178. Title                                    : Japanese-PGS
  179. Language                                 : Japanese
  180. Default                                  : No
  181. Forced                                   : No

  182. Text #9
  183. ID                                       : 12
  184. Format                                   : PGS
  185. Muxing mode                              : zlib
  186. Codec ID                                 : S_HDMV/PGS
  187. Codec ID/Info                            : Picture based subtitle format used on BDs/HD-DVDs
  188. Duration                                 : 2 h 31 min
  189. Bit rate                                 : 26.5 kb/s
  190. Count of elements                        : 4108
  191. Stream size                              : 28.8 MiB (0%)
  192. Title                                    : Korean-PGS
  193. Language                                 : Korean
  194. Default                                  : No
  195. Forced                                   : No

  196. Text #10
  197. ID                                       : 13
  198. Format                                   : PGS
  199. Muxing mode                              : zlib
  200. Codec ID                                 : S_HDMV/PGS
  201. Codec ID/Info                            : Picture based subtitle format used on BDs/HD-DVDs
  202. Duration                                 : 2 h 31 min
  203. Bit rate                                 : 33.2 kb/s
  204. Count of elements                        : 3910
  205. Stream size                              : 36.0 MiB (0%)
  206. Title                                    : Spanish-PGS
  207. Language                                 : Spanish
  208. Default                                  : No
  209. Forced                                   : No

  210. Menu
  211. 00:00:00.000                             : en:Chapter 01
  212. 00:04:45.285                             : en:Chapter 02
  213. 00:07:32.202                             : en:Chapter 03
  214. 00:10:02.477                             : en:Chapter 04
  215. 00:15:38.980                             : en:Chapter 05
  216. 00:20:14.839                             : en:Chapter 06
  217. 00:21:39.465                             : en:Chapter 07
  218. 00:26:00.559                             : en:Chapter 08
  219. 00:31:57.541                             : en:Chapter 09
  220. 00:34:09.422                             : en:Chapter 10
  221. 00:39:12.934                             : en:Chapter 11
  222. 00:42:06.566                             : en:Chapter 12
  223. 00:45:56.671                             : en:Chapter 13
  224. 00:48:38.332                             : en:Chapter 14
  225. 00:51:21.745                             : en:Chapter 15
  226. 00:55:03.342                             : en:Chapter 16
  227. 00:57:50.467                             : en:Chapter 17
  228. 01:00:26.706                             : en:Chapter 18
  229. 01:06:33.156                             : en:Chapter 19
  230. 01:11:59.482                             : en:Chapter 20
  231. 01:16:13.444                             : en:Chapter 21
  232. 01:19:30.182                             : en:Chapter 22
  233. 01:24:18.428                             : en:Chapter 23
  234. 01:29:24.651                             : en:Chapter 24
  235. 01:33:15.840                             : en:Chapter 25
  236. 01:38:10.968                             : en:Chapter 26
  237. 01:40:57.134                             : en:Chapter 27
  238. 01:43:22.988                             : en:Chapter 28
  239. 01:45:48.884                             : en:Chapter 29
  240. 01:50:38.632                             : en:Chapter 30
  241. 01:53:38.020                             : en:Chapter 31
  242. 01:57:47.269                             : en:Chapter 32
  243. 02:00:16.334                             : en:Chapter 33
  244. 02:05:22.557                             : en:Chapter 34
  245. 02:09:18.042                             : en:Chapter 35
  246. 02:12:01.163                             : en:Chapter 36
  247. 02:15:26.076                             : en:Chapter 37
  248. 02:18:22.794                             : en:Chapter 38
  249. 02:20:46.104                             : en:Chapter 39
  250. 02:26:27.278                             : en:Chapter 40
复制代码

极速车王 Ford.v.Ferrari.2019.1080p.BluRay.x264.TrueHD.7.1.Atmos-SWTYBLZ 21.56GB-1.png 极速车王 Ford.v.Ferrari.2019.1080p.BluRay.x264.TrueHD.7.1.Atmos-SWTYBLZ 21.56GB-3.png 极速车王 Ford.v.Ferrari.2019.1080p.BluRay.x264.TrueHD.7.1.Atmos-SWTYBLZ 21.56GB-4.png






回复

使用道具 举报

蓝光币
746
发表于 2020-2-4 16:45:26 | 显示全部楼层
谢谢楼主无私分享。
回复 支持 反对

使用道具 举报

蓝光币
746
发表于 2020-2-4 16:47:24 | 显示全部楼层
谢谢楼主无私分享。
回复 支持 反对

使用道具 举报

蓝光币
60
发表于 2020-2-4 21:25:37 | 显示全部楼层

这东西我收了!谢谢楼主!蓝光电影网真好!
回复 支持 反对

使用道具 举报

蓝光币
1260
发表于 2020-2-6 03:15:55 | 显示全部楼层
谢谢楼主无私分享。
回复 支持 反对

使用道具 举报

懒得打字嘛,点击右侧快捷回复 【右侧内容,后台自定义】
您需要登录后才可以回帖 登录 | 立即加入

本版积分规则

Archiver|小黑屋| 蓝光电影网 |网站地图

Copyright © 2021 Comsenz Inc. Powered by 蓝光电影网

蓝光电影网

本站内容由用户自主分享和转载自互联网,转载目的在于传递更多信息,并不代表本网赞同其观点和对其真实性负责。

如有侵权、违反国家法律政策行为,请联系我们,我们会第一时间及时清除和处理!

举报反馈邮箱:[email protected]

快速回复 返回顶部 返回列表