找回密码

蓝光电影网

查看: 630|回复: 2

[剧情] 诱饵/饵 Bait.2019.1080p.BluRay.REMUX.AVC.LPCM.2.0-FGT 22.73GB

[复制链接]
蓝光币
1022
发表于 2020-2-4 12:00:35 | 显示全部楼层 |阅读模式
诱饵/饵 Bait.2019.1080p.BluRay.REMUX.AVC.LPCM.2.0-FGT 22.73GB-1.png

译  名 诱饵 / 饵(台)
片  名 Bait
年  代 2019
产  地 英国
类  别 剧情
语  言 英语
上映日期 2019-02-09(柏林电影节)
IMDb评分  7.5/10 from 1216 users
IMDb链接  https://www.imdb.com/title/tt9652782
豆瓣评分 0/10 from 0 users
豆瓣链接 https://movie.douban.com/subject/30453075/
片  长 88分钟
导  演 马克·詹金 Mark Jenkin
编  剧 马克·詹金 Mark Jenkin
主  演 Morgan Val Baker
       Georgia Ellery
       Martin Ellis
       Chloe Endean
       Stacey Guthrie
       Jowan Jacobs
       Giles King
       Edward Rowe
       西蒙·谢泼德 Simon Shepherd
       特里斯坦·斯特罗克 Tristan Sturrock
       Mary Woodvine


标  签 英国 | 2019 | 电影 | 剧情 | 柏林电影节 | Mark_Jenkin | 2010s | 黑白

简  介  

  康沃尔渔村的风光亮信片故乡诗误导了人们。虽然曩昔钓鱼是一种养家生活的方式,但现在富有的伦敦旅客纷纷下山,取代了当地人,当地人的生存是以遭到威胁。史蒂文和马丁兄弟的关系也很严重。马丁是一个没有船的渔夫,由于史蒂文起头用它来为一成天的旅客供给更赢利的旅游。他们卖掉了这座家庭别墅,现在看来,最初一场战役是和新仆人在海边的停车位上展开。但是,情况很快就失控了,而不但仅是由于车轮夹钳。
  Bait是一种黑白,手工建造,16毫米胶片建造的电影。很多关于鱼、网、龙虾、长靴、绳结和渔篮的特写镜头让人想起了蒙太奇景点的理论。对分歧社会阶级的描写——可以说是阶级关系——也让人想起了英国电影中的社会现实主义传统。但是,最重要的是,在影象平分歧条理的电影历史参考文献之下,当前很多政治关联正在期待被发现。
  The picture-postcard idyll of the Cornwall fishing village is misleading. While fishing used to be a way of supporting oneself, wealthy London tourists have now descended and are displacing the locals, whose livelihood is thus threatened. The relationship between brothers Steven and Martin is also strained. Martin is a fisherman without a boat, since Steven started using it for far more lucrative tours for all the day-trippers. They’ve sold the family cottage and now it seems that the final battle to be fought is that with the new owners over the parking space next to the sea. Yet the situation soon gets out of hand, and not just because of the wheel clamp.
  Bait is a black-and-white film shot on hand-processed 16mm. Numerous close-ups of fish, nets, lobsters, wellington boots, knots and catch baskets bring to mind the theory of a montage of attractions. The depiction of the different social strata – one could speak of class relations – is also reminiscent of the tradition of social realism in British cinema. Above all, however, a whole lot of current political relevance is waiting to be discovered beneath the different layers of film historical references contained in the images.

获奖情况  

  第73届英国电影学院奖(2020)
  电影奖 最好英国影片(提名)
  电影奖 英国外乡精采童贞作(提名) 马克·詹金

  第22届英国自力电影奖(2019)
  最好英国自力电影(提名)
  最好导演(提名) 马克·詹金
  制片冲破
  最好剪辑(提名)

  第40届伦敦影评人协会奖(2020)
  年度英国/爱尔兰电影(提名)
  年度冲破英国/爱尔兰电影人(提名) 马克·詹金
  1. Video
  2. ID                                       : 1
  3. Format                                   : AVC
  4. Format/Info                              : Advanced Video Codec
  5. Format profile                           : [email protected]
  6. Format settings                          : CABAC / 3 Ref Frames
  7. Format settings, CABAC                   : Yes
  8. Format settings, Reference frames        : 3 frames
  9. Codec ID                                 : V_MPEG4/ISO/AVC
  10. Duration                                 : 1 h 28 min
  11. Bit rate mode                            : Variable
  12. Bit rate                                 : 35.0 Mb/s
  13. Maximum bit rate                         : 36.0 Mb/s
  14. Width                                    : 1 920 pixels
  15. Height                                   : 1 080 pixels
  16. Display aspect ratio                     : 16:9
  17. Frame rate mode                          : Constant
  18. Frame rate                               : 23.976 (24000/1001) FPS
  19. Color space                              : YUV
  20. Chroma subsampling                       : 4:2:0
  21. Bit depth                                : 8 bits
  22. Scan type                                : Progressive
  23. Bits/(Pixel*Frame)                       : 0.704
  24. Stream size                              : 21.1 GiB (93%)
  25. Title                                    : Bait.2019.1080p.BluRay.REMUX.AVC.LPCM.2.0-FGT
  26. Writing library                          : x264 core 157 r2935 545de2f
  27. Encoding settings                        : cabac=1 / ref=4 / deblock=1:0:0 / analyse=0x3:0x133 / me=umh / subme=10 / psy=1 / psy_rd=1.00:0.00 / mixed_ref=1 / me_range=24 / chroma_me=1 / trellis=2 / 8x8dct=1 / cqm=0 / deadzone=21,11 / fast_pskip=1 / chroma_qp_offset=-2 / threads=12 / lookahead_threads=1 / sliced_threads=0 / slices=4 / nr=0 / decimate=1 / interlaced=0 / bluray_compat=1 / constrained_intra=0 / bframes=3 / b_pyramid=1 / b_adapt=2 / b_bias=0 / direct=3 / weightb=1 / open_gop=1 / weightp=1 / keyint=24 / keyint_min=1 / scenecut=40 / intra_refresh=0 / rc_lookahead=24 / rc=2pass / mbtree=1 / bitrate=35000 / ratetol=0.1 / qcomp=0.90 / qpmin=1 / qpmax=69 / qpstep=4 / cplxblur=20.0 / qblur=0.5 / vbv_maxrate=36000 / vbv_bufsize=30000 / nal_hrd=vbr / filler=0 / ip_ratio=1.40 / aq=1:1.00
  28. Language                                 : English
  29. Default                                  : No
  30. Forced                                   : No
  31. Color range                              : Limited
  32. Color primaries                          : BT.709
  33. Transfer characteristics                 : BT.709
  34. Matrix coefficients                      : BT.709

  35. Audio #1
  36. ID                                       : 2
  37. Format                                   : PCM
  38. Format settings                          : Little / Signed
  39. Codec ID                                 : A_PCM/INT/LIT
  40. Duration                                 : 1 h 28 min
  41. Bit rate mode                            : Constant
  42. Bit rate                                 : 2 304 kb/s
  43. Channel(s)                               : 2 channels
  44. Sampling rate                            : 48.0 kHz
  45. Frame rate                               : 30.000 FPS (1600 SPF)
  46. Bit depth                                : 24 bits
  47. Stream size                              : 1.43 GiB (6%)
  48. Title                                    : Bait.2019.1080p.BluRay.REMUX.AVC.LPCM.2.0-FGT
  49. Language                                 : English
  50. Default                                  : Yes
  51. Forced                                   : No

  52. Audio #2
  53. ID                                       : 3
  54. Format                                   : AC-3
  55. Format/Info                              : Audio Coding 3
  56. Commercial name                          : Dolby Digital
  57. Codec ID                                 : A_AC3
  58. Duration                                 : 1 h 28 min
  59. Bit rate mode                            : Constant
  60. Bit rate                                 : 320 kb/s
  61. Channel(s)                               : 2 channels
  62. Channel layout                           : L R
  63. Sampling rate                            : 48.0 kHz
  64. Frame rate                               : 31.250 FPS (1536 SPF)
  65. Bit depth                                : 16 bits
  66. Compression mode                         : Lossy
  67. Stream size                              : 203 MiB (1%)
  68. Title                                    : Bait.2019.1080p.BluRay.REMUX.AVC.LPCM.2.0-FGT
  69. Language                                 : English
  70. Service kind                             : Complete Main
  71. Default                                  : No
  72. Forced                                   : No

  73. Text #1
  74. ID                                       : 4
  75. Format                                   : UTF-8
  76. Codec ID                                 : S_TEXT/UTF8
  77. Codec ID/Info                            : UTF-8 Plain Text
  78. Duration                                 : 1 h 17 min
  79. Bit rate                                 : 24 b/s
  80. Count of elements                        : 545
  81. Stream size                              : 13.7 KiB (0%)
  82. Title                                    : English-SRT
  83. Language                                 : English
  84. Default                                  : Yes
  85. Forced                                   : No

  86. Text #2
  87. ID                                       : 5
  88. Format                                   : PGS
  89. Muxing mode                              : zlib
  90. Codec ID                                 : S_HDMV/PGS
  91. Codec ID/Info                            : Picture based subtitle format used on BDs/HD-DVDs
  92. Duration                                 : 1 h 24 min
  93. Bit rate                                 : 15.6 kb/s
  94. Count of elements                        : 1288
  95. Stream size                              : 9.37 MiB (0%)
  96. Title                                    : English-PGS
  97. Language                                 : English
  98. Default                                  : No
  99. Forced                                   : No

  100. Menu
  101. 00:00:00.000                             : en:Chapter 01
  102. 00:07:22.900                             : en:Chapter 02
  103. 00:14:48.554                             : en:Chapter 03
  104. 00:24:01.189                             : en:Chapter 04
  105. 00:29:21.926                             : en:Chapter 05
  106. 00:37:48.015                             : en:Chapter 06
  107. 00:43:13.716                             : en:Chapter 07
  108. 00:50:53.258                             : en:Chapter 08
  109. 00:58:18.244                             : en:Chapter 09
  110. 01:07:01.350                             : en:Chapter 10
  111. 01:12:50.407                             : en:Chapter 11
  112. 01:21:13.743                             : en:Chapter 12
复制代码

诱饵/饵 Bait.2019.1080p.BluRay.REMUX.AVC.LPCM.2.0-FGT 22.73GB-2.png 诱饵/饵 Bait.2019.1080p.BluRay.REMUX.AVC.LPCM.2.0-FGT 22.73GB-3.png 诱饵/饵 Bait.2019.1080p.BluRay.REMUX.AVC.LPCM.2.0-FGT 22.73GB-1.png






回复

使用道具 举报

懒得打字嘛,点击右侧快捷回复 【右侧内容,后台自定义】
您需要登录后才可以回帖 登录 | 立即加入

本版积分规则

Archiver|小黑屋| 蓝光电影网 |网站地图

Copyright © 2021 Comsenz Inc. Powered by 蓝光电影网

蓝光电影网

本站内容由用户自主分享和转载自互联网,转载目的在于传递更多信息,并不代表本网赞同其观点和对其真实性负责。

如有侵权、违反国家法律政策行为,请联系我们,我们会第一时间及时清除和处理!

举报反馈邮箱:[email protected]

快速回复 返回顶部 返回列表