找回密码

蓝光电影网

查看: 203|回复: 4

[2160p] 蓝衣魔鬼[简繁英字幕].Devil.in.a.Blue.Dress.1995.2160p.HDR.UHD.BluRay.DTS-HD.MA.5.1.x265-10bit-BATHD 17.14GB

[复制链接]
蓝光币
8
发表于 2022-7-31 02:00:50 | 显示全部楼层 |阅读模式


◎标  题 蓝衣魔鬼
◎译  名 蓝魔鬼
◎片  名 Devil in a Blue Dress
◎年  代 1995
◎产  地 美国
◎类  别 剧情 / 悬疑 / 犯罪 / 黑色电影
◎语  言 英语
◎上映日期 1995-09-29(美国)
◎IMDb评分 6.7/10 (19368人评价)
◎IMDb链接 https://www.imdb.com/title/tt0112857/
◎豆瓣评分 6.6/10 (452人评价)
◎豆瓣链接 https://movie.douban.com/subject/1298906/
◎片  长 102分钟
◎导  演 卡尔·弗兰克林 Carl Franklin
◎编  剧 卡尔·弗兰克林 Carl Franklin
◎演  员 丹泽尔·华盛顿 Denzel Washington
       汤姆·塞兹摩尔 Tom Sizemore
       詹妮弗·比尔斯 Jennifer Beals
       唐·钱德尔 Don Cheadle
       特里·金尼 Terry Kinney
       阿尔伯特·海尔 Albert Hall
       丽莎·妮可·卡森 Lisa Nicole Carson
       爱德华·萨克森 Edward Saxon
       乔纳森·戴米 Jonathan Demme
       唐娜·吉格里奥蒂  Donna Gigliotti
       丹·韦伯斯特 Dan Webster
       斯科特·维勒尔 Scott Wheeler
       Edna Sheen Edna Sheen
       Katterli Frauenfelder Katterli Frauenfelder
◎标  签 美国 / 丹泽尔·华盛顿 / 犯罪 / 悬疑 / 1995 / 美国电影 / 剧情 / DenzelWashington
◎简  介
  1948年,洛杉矶的经济突趋繁华,满怀希望的甲士伊斯退役后到洛杉矶寻觅工作,满怀信心的他,以为像他这样出色的黑人在洛杉矶不难找到合适的位置,怎料好不轻易才找到一份在机场内当技工的工作,但未几又被老板解雇,更被房东催收欠租。就在失望边沿之际,他受聘于奥秘男人狄维去找寻一个失落女子黛芬,而伊斯也是以而堕进狄维的圈套,他也不知不觉间被牵扯到恐吓、谋杀、政治的纠缠当中。
  1. ##### MediaInfo ######
  2. General
  3. Unique ID                                : 259679894274548228831514979777849204016 (0xC35C8747711E44A189BE93663D521D30)
  4. Complete name                            : Devil.in.a.Blue.Dress.1995.2160p.HDR.UHD.BluRay.DTS-HD.MA.5.1.x265-10bit-BATHD.mkv
  5. Format                                   : Matroska
  6. Format version                           : Version 4
  7. File size                                : 17.1 GiB
  8. Duration                                 : 1 h 41 min
  9. Overall bit rate mode                    : Variable
  10. Overall bit rate                         : 24.2 Mb/s
  11. Movie name                               : Devil in a Blue Dress 1995 2160p HDR UHD BluRay DTS-HD MA 5.1 x265-10bit-HDS
  12. Encoded date                             : UTC 2022-07-28 08:40:29
  13. Writing application                      : mkvmerge v69.0.0 ('Day And Age') 64-bit
  14. Writing library                          : libebml v1.4.2 + libmatroska v1.6.4
  15. Video
  16. ID                                       : 1
  17. Format                                   : HEVC
  18. Format/Info                              : High Efficiency Video Coding
  19. Format profile                           : Main [email protected]@High
  20. HDR format                               : SMPTE ST 2086, HDR10 compatible
  21. Codec ID                                 : V_MPEGH/ISO/HEVC
  22. Duration                                 : 1 h 41 min
  23. Bit rate                                 : 20.5 Mb/s
  24. Width                                    : 3 840 pixels
  25. Height                                   : 2 072 pixels
  26. Display aspect ratio                     : 1.85:1
  27. Frame rate mode                          : Constant
  28. Frame rate                               : 23.976 (24000/1001/53875) FPS
  29. Color space                              : YUV
  30. Chroma subsampling                       : 4:2:0
  31. Bit depth                                : 10 bits
  32. Bits/(Pixel*Frame)                       : 0.108
  33. Stream size                              : 14.6 GiB (85%)
  34. Title                                    : @HDSky
  35. Writing library                          : x265 - H.265/HEVC codec
  36. Default                                  : Yes
  37. Forced                                   : No
  38. Color range                              : Limited
  39. Color primaries                          : BT.2020
  40. Transfer characteristics                 : PQ
  41. Matrix coefficients                      : BT.2020 non-constant
  42. Mastering display color primaries        : Display P3
  43. Mastering display luminance              : min: 0.0001 cd/m2, max: 2000 cd/m2
  44. Maximum Content Light Level              : 1000 cd/m2
  45. Maximum Frame-Average Light Level        : 335 cd/m2
  46. Audio
  47. ID                                       : 2
  48. Format                                   : DTS XLL
  49. Format/Info                              : Digital Theater Systems
  50. Commercial name                          : DTS-HD Master Audio
  51. Codec ID                                 : A_DTS
  52. Duration                                 : 1 h 41 min
  53. Bit rate mode                            : Variable
  54. Bit rate                                 : 3 593 kb/s
  55. Channel(s)                               : 6 channels
  56. Channel layout                           : C L R Ls Rs LFE
  57. Sampling rate                            : 48.0 kHz
  58. Frame rate                               : 93.750 FPS (512 SPF)
  59. Bit depth                                : 24 bits
  60. Compression mode                         : Lossless
  61. Stream size                              : 2.55 GiB (15%)
  62. Title                                    : English
  63. Language                                 : English
  64. Default                                  : Yes
  65. Forced                                   : No
  66. Text #1
  67. ID                                       : 3
  68. Format                                   : PGS
  69. Muxing mode                              : zlib
  70. Codec ID                                 : S_HDMV/PGS
  71. Codec ID/Info                            : Picture based subtitle format used on BDs/HD-DVDs
  72. Duration                                 : 1 h 40 min
  73. Bit rate                                 : 63.9 kb/s
  74. Count of elements                        : 2934
  75. Stream size                              : 45.9 MiB (0%)
  76. Title                                    : ENG
  77. Language                                 : English
  78. Default                                  : Yes
  79. Forced                                   : No
  80. Text #2
  81. ID                                       : 4
  82. Format                                   : PGS
  83. Muxing mode                              : zlib
  84. Codec ID                                 : S_HDMV/PGS
  85. Codec ID/Info                            : Picture based subtitle format used on BDs/HD-DVDs
  86. Duration                                 : 1 h 40 min
  87. Bit rate                                 : 23.2 kb/s
  88. Count of elements                        : 2266
  89. Stream size                              : 16.7 MiB (0%)
  90. Title                                    : CHS
  91. Language                                 : Chinese
  92. Default                                  : Yes
  93. Forced                                   : No
  94. Text #3
  95. ID                                       : 5
  96. Format                                   : PGS
  97. Muxing mode                              : zlib
  98. Codec ID                                 : S_HDMV/PGS
  99. Codec ID/Info                            : Picture based subtitle format used on BDs/HD-DVDs
  100. Duration                                 : 1 h 40 min
  101. Bit rate                                 : 24.0 kb/s
  102. Count of elements                        : 2266
  103. Stream size                              : 17.3 MiB (0%)
  104. Title                                    : CHT
  105. Language                                 : Chinese
  106. Default                                  : Yes
  107. Forced                                   : No
  108. Menu
  109. 00:00:00.000                             : en:第 01 章
  110. 00:03:27.582                             : en:第 02 章
  111. 00:11:29.731                             : en:第 03 章
  112. 00:23:01.046                             : en:第 04 章
  113. 00:28:29.958                             : en:第 05 章
  114. 00:35:20.327                             : en:第 06 章
  115. 00:44:44.265                             : en:第 07 章
  116. 00:51:48.355                             : en:第 08 章
  117. 01:03:05.782                             : en:第 09 章
  118. 01:14:23.000                             : en:第 10 章
  119. 01:21:54.118                             : en:第 11 章
  120. 01:30:46.900                             : en:第 12 章
  121. 01:38:06.839                             : en:第 13 章
复制代码

















保举请利用qBittorrent,utorrent,transmission等标准BT软件下载!以获得最快速度。奉求保种!





回复

使用道具 举报

蓝光币
225
发表于 2022-7-31 07:20:18 | 显示全部楼层
不错的片子,有点意思!
回复 支持 反对

使用道具 举报

蓝光币
220
发表于 2022-7-31 11:31:08 | 显示全部楼层

既然你诚信诚意的推荐了,那我就勉为其难的看看吧!蓝光电影网不走平凡路。
回复 支持 反对

使用道具 举报

蓝光币
388
发表于 2022-7-31 12:25:38 | 显示全部楼层

楼主太厉害了!楼主,电影应该很好看我觉得蓝光电影网真是个好地方!
回复 支持 反对

使用道具 举报

蓝光币
13
发表于 2022-7-31 12:25:53 | 显示全部楼层

楼主太厉害了!楼主,电影应该很好看我觉得蓝光电影网真是个好地方!
回复 支持 反对

使用道具 举报

懒得打字嘛,点击右侧快捷回复 【右侧内容,后台自定义】
您需要登录后才可以回帖 登录 | 立即加入

本版积分规则

Archiver|小黑屋| 蓝光电影网 |网站地图

Copyright © 2021 Comsenz Inc. Powered by 蓝光电影网

蓝光电影网

本站内容由用户自主分享和转载自互联网,转载目的在于传递更多信息,并不代表本网赞同其观点和对其真实性负责。

如有侵权、违反国家法律政策行为,请联系我们,我们会第一时间及时清除和处理!

举报反馈邮箱:[email protected]

快速回复 返回顶部 返回列表