找回密码

蓝光电影网

查看: 188|回复: 1

[2160p] 原始恐惧 Primal.2019.2160p.BluRay.x265.10bit.SDR.DTS-HD.MA.5.1-SWTYBLZ 20.91GB

[复制链接]
蓝光币
1020
发表于 2022-7-31 18:00:21 | 显示全部楼层 |阅读模式


◎标  题 原始恐惧
◎译  名 野性獵殺(台)
◎片  名 Primal
◎年  代 2019
◎产  地 美国
◎类  别 行动
◎语  言 英语
◎上映日期 2019-11-08(美国)
◎IMDb评分 4.9/10 (7516人评价)
◎IMDb链接 https://www.imdb.com/title/tt7394816/
◎豆瓣评分 5.4/10 (1284人评价)
◎豆瓣链接 https://movie.douban.com/subject/27139736/
◎片  长 97分钟
◎导  演 尼克·鲍威尔 Nick Powell
◎演  员 尼古拉斯·凯奇 Nicolas Cage
       法米克·詹森 Famke Janssen
       凯文·杜兰 Kevin Durand
       迈克尔·因佩里奥利 Michael Imperioli
       拉莫尼卡·加勒特 LaMonica Garrett
       雷·埃尔南德斯 Rey Hernandez
       汤姆·沃克 Tom Walker
       布赖恩·泰斯特 Brian Tester
       Braulio Castillo hijo Braulio Castillo hijo
◎标  签 尼古拉斯·凯奇 / 行动 / 美国 / 犯罪 / 2019 / 美国电影 / 动物 / 血腥
◎简  介

    弗兰克(尼古拉斯·凯奇 Nicolas Cage 饰)是一位大型动物禁猎区的治理员,这一次,他介入了一项很是危险的使命,那就是护送一艘载满了珍奇而又危险的大型动物的船只,从亚马逊驶往希腊。船上除了野活泼物外,还有更危险的生物存在,那就是老道而又狡猾的杀手劳夫乐(凯文·杜兰 Kevin Durand 饰)。                                                                      果不其然,在路程中,劳夫乐抛弃了负责看管他的差人,放出了关在牢笼里的凶悍而又致命的猛兽,一时之间,正艘汽船堕入了紊乱当中。身为负责人的弗兰克,不但要保证野活泼物们不被危险,也负担着船员们的人命,还要追捕危险的逃犯。
  1. Video
  2. ID                                       : 1
  3. Format                                   : HEVC
  4. Format/Info                              : High Efficiency Video Coding
  5. Format profile                           : Main [email protected]@High
  6. Codec ID                                 : V_MPEGH/ISO/HEVC
  7. Duration                                 : 1 h 36 min
  8. Bit rate                                 : 26.3 Mb/s
  9. Width                                    : 3 840 pixels
  10. Height                                   : 1 606 pixels
  11. Display aspect ratio                     : 2.40:1
  12. Frame rate mode                          : Constant
  13. Frame rate                               : 23.976 (24000/1001/189150) FPS
  14. Color space                              : YUV
  15. Chroma subsampling                       : 4:2:0
  16. Bit depth                                : 10 bits
  17. Bits/(Pixel*Frame)                       : 0.178
  18. Stream size                              : 17.8 GiB (85%)
  19. Writing library                          : x265 3.0ed72af837053:[Windows][GCC 8.2.0][64 bit] 10bit
  20. Encoding settings                        : cpuid=1111039 / frame-threads=6 / numa-pools=40 / wpp / no-pmode / no-pme / no-psnr / no-ssim / log-level=2 / input-csp=1 / input-res=3840x1606 / interlace=0 / total-frames=139287 / level-idc=51 / high-tier=1 / uhd-bd=0 / ref=3 / no-allow-non-conformance / repeat-headers / annexb / aud / hrd / info / hash=0 / no-temporal-layers / no-open-gop / min-keyint=1 / keyint=24 / gop-lookahead=0 / bframes=4 / b-adapt=2 / b-pyramid / bframe-bias=0 / rc-lookahead=25 / lookahead-slices=4 / scenecut=40 / radl=0 / no-splice / no-intra-refresh / ctu=64 / min-cu-size=8 / no-rect / no-amp / max-tu-size=32 / tu-inter-depth=1 / tu-intra-depth=1 / limit-tu=0 / rdoq-level=0 / dynamic-rd=0.00 / no-ssim-rd / signhide / no-tskip / nr-intra=0 / nr-inter=0 / no-constrained-intra / strong-intra-smoothing / max-merge=2 / limit-refs=3 / no-limit-modes / me=1 / subme=2 / merange=57 / temporal-mvp / weightp / no-weightb / no-analyze-src-pics / deblock=0:0 / no-sao / no-sao-non-deblock / rd=3 / no-early-skip / rskip / no-fast-intra / no-tskip-fast / no-cu-lossless / no-b-intra / no-splitrd-skip / rdpenalty=0 / psy-rd=2.00 / psy-rdoq=0.00 / no-rd-refine / no-lossless / cbqpoffs=0 / crqpoffs=0 / rc=crf / crf=16.0 / qcomp=0.60 / qpstep=4 / stats-write=0 / stats-read=0 / vbv-maxrate=160000 / vbv-bufsize=160000 / vbv-init=0.9 / crf-max=0.0 / crf-min=0.0 / ipratio=1.40 / pbratio=1.30 / aq-mode=1 / aq-strength=1.00 / cutree / zone-count=0 / no-strict-cbr / qg-size=32 / no-rc-grain / qpmax=69 / qpmin=0 / no-const-vbv / sar=1 / overscan=0 / videoformat=5 / range=0 / colorprim=2 / transfer=2 / colormatrix=2 / chromaloc=0 / display-window=0 / max-cll=0,0 / min-luma=0 / max-luma=1023 / log2-max-poc-lsb=8 / vui-timing-info / vui-hrd-info / slices=1 / opt-qp-pps / opt-ref-list-length-pps / no-multi-pass-opt-rps / scenecut-bias=0.05 / no-opt-cu-delta-qp / no-aq-motion / no-hdr / no-hdr-opt / no-dhdr10-opt / no-idr-recovery-sei / analysis-reuse-level=5 / scale-factor=0 / refine-intra=0 / refine-inter=0 / refine-mv=0 / refine-ctu-distortion=0 / no-limit-sao / ctu-info=0 / no-lowpass-dct / refine-analysis-type=0 / copy-pic=1 / max-ausize-factor=1.0 / no-dynamic-refine / no-single-sei / no-hevc-aq / qp-adaptation-range=1.00
  21. Default                                  : Yes
  22. Forced                                   : No
  23. Audio #1
  24. ID                                       : 2
  25. ID in the original source medium         : 4352 (0x1100)
  26. Format                                   : DTS XLL
  27. Format/Info                              : Digital Theater Systems
  28. Commercial name                          : DTS-HD Master Audio
  29. Codec ID                                 : A_DTS
  30. Duration                                 : 1 h 36 min
  31. Bit rate mode                            : Variable
  32. Bit rate                                 : 3 824 kb/s
  33. Channel(s)                               : 6 channels
  34. Channel layout                           : C L R Ls Rs LFE
  35. Sampling rate                            : 48.0 kHz
  36. Frame rate                               : 93.750 FPS (512 SPF)
  37. Bit depth                                : 24 bits
  38. Compression mode                         : Lossless
  39. Stream size                              : 2.59 GiB (12%)
  40. Title                                    : DTS-HD MA 5.1
  41. Language                                 : English
  42. Default                                  : Yes
  43. Forced                                   : No
  44. Original source medium                   : Blu-ray
  45. Audio #2
  46. ID                                       : 3
  47. Format                                   : AC-3
  48. Format/Info                              : Audio Coding 3
  49. Commercial name                          : Dolby Digital
  50. Codec ID                                 : A_AC3
  51. Duration                                 : 1 h 36 min
  52. Bit rate mode                            : Constant
  53. Bit rate                                 : 640 kb/s
  54. Channel(s)                               : 6 channels
  55. Channel layout                           : L R C LFE Ls Rs
  56. Sampling rate                            : 48.0 kHz
  57. Frame rate                               : 31.250 FPS (1536 SPF)
  58. Compression mode                         : Lossy
  59. Stream size                              : 443 MiB (2%)
  60. Title                                    : DD 5.1
  61. Language                                 : English
  62. Service kind                             : Complete Main
  63. Default                                  : No
  64. Forced                                   : No
  65. Text #1
  66. ID                                       : 4
  67. Format                                   : UTF-8
  68. Codec ID                                 : S_TEXT/UTF8
  69. Codec ID/Info                            : UTF-8 Plain Text
  70. Duration                                 : 1 h 36 min
  71. Bit rate                                 : 47 b/s
  72. Frame rate                               : 0.172 FPS
  73. Count of elements                        : 1001
  74. Stream size                              : 33.4 KiB (0%)
  75. Language                                 : English
  76. Default                                  : Yes
  77. Forced                                   : No
  78. Text #2
  79. ID                                       : 5
  80. Format                                   : UTF-8
  81. Codec ID                                 : S_TEXT/UTF8
  82. Codec ID/Info                            : UTF-8 Plain Text
  83. Duration                                 : 1 h 36 min
  84. Bit rate                                 : 52 b/s
  85. Frame rate                               : 0.202 FPS
  86. Count of elements                        : 1175
  87. Stream size                              : 37.1 KiB (0%)
  88. Title                                    : SDH
  89. Language                                 : English
  90. Default                                  : No
  91. Forced                                   : No
  92. Text #3
  93. ID                                       : 6
  94. ID in the original source medium         : 4768 (0x12A0)
  95. Format                                   : PGS
  96. Muxing mode                              : zlib
  97. Codec ID                                 : S_HDMV/PGS
  98. Codec ID/Info                            : Picture based subtitle format used on BDs/HD-DVDs
  99. Duration                                 : 1 h 36 min
  100. Bit rate                                 : 31.4 kb/s
  101. Frame rate                               : 0.405 FPS
  102. Count of elements                        : 2352
  103. Stream size                              : 21.7 MiB (0%)
  104. Language                                 : English
  105. Default                                  : No
  106. Forced                                   : No
  107. Original source medium                   : Blu-ray
  108. Text #4
  109. ID                                       : 7
  110. ID in the original source medium         : 4769 (0x12A1)
  111. Format                                   : PGS
  112. Muxing mode                              : zlib
  113. Codec ID                                 : S_HDMV/PGS
  114. Codec ID/Info                            : Picture based subtitle format used on BDs/HD-DVDs
  115. Duration                                 : 1 h 31 min
  116. Bit rate                                 : 26.6 kb/s
  117. Frame rate                               : 0.361 FPS
  118. Count of elements                        : 1976
  119. Stream size                              : 17.3 MiB (0%)
  120. Language                                 : Spanish
  121. Default                                  : No
  122. Forced                                   : No
  123. Original source medium                   : Blu-ray
  124. Menu
  125. 00:00:00.000                             : en:Chapter 01
  126. 00:10:00.933                             : en:Chapter 02
  127. 00:20:01.533                             : en:Chapter 03
  128. 00:30:01.966                             : en:Chapter 04
  129. 00:40:05.736                             : en:Chapter 05
  130. 00:50:03.583                             : en:Chapter 06
  131. 01:00:04.058                             : en:Chapter 07
  132. 01:10:04.992                             : en:Chapter 08
  133. 01:20:05.258                             : en:Chapter 09
  134. 01:30:05.525                             : en:Chapter 10
  135. 01:32:27.542                             : en:Chapter 11
复制代码






                                       
                                       

                                       
                                       
                                       




回复

使用道具 举报

蓝光币
52
发表于 2022-7-31 21:46:38 | 显示全部楼层
楼主发贴辛苦了,谢谢楼主分享!
回复 支持 反对

使用道具 举报

懒得打字嘛,点击右侧快捷回复 【右侧内容,后台自定义】
您需要登录后才可以回帖 登录 | 立即加入

本版积分规则

Archiver|小黑屋| 蓝光电影网 |网站地图

Copyright © 2021 Comsenz Inc. Powered by 蓝光电影网

蓝光电影网

本站内容由用户自主分享和转载自互联网,转载目的在于传递更多信息,并不代表本网赞同其观点和对其真实性负责。

如有侵权、违反国家法律政策行为,请联系我们,我们会第一时间及时清除和处理!

举报反馈邮箱:[email protected]

快速回复 返回顶部 返回列表