找回密码

蓝光电影网

查看: 31|回复: 0

[喜剧] 古堡捉妖记.The.Ghost.Breakers.1940.RERiP.720p.BluRay.x264-ORBS 5.81GB

[复制链接]
蓝光币
1084
发表于 2023-1-13 16:08:33 | 显示全部楼层 |阅读模式


◎标  题 古堡捉妖记
◎译  名 鬼魂破坏机
◎片  名 The Ghost Breakers
◎年  代 1940
◎产  地 美国
◎类  别 笑剧 / 可骇
◎语  言 英语
◎上映日期 1940
◎IMDb评分 7.1/10 (3477人评价)
◎IMDb链接 https://www.imdb.com/title/tt0032520/
◎豆瓣链接 https://movie.douban.com/subject/4132327/
◎片  长 85 分钟
◎导  演 乔治·马歇尔 George Marshall
◎编  剧 保罗·迪基 Paul Dickey
       查尔斯·W·戈达德 Charles W. Goddard
       沃尔特·德莱昂 Walter DeLeon
◎演  员 鲍勃·霍普 Bob Hope
       宝莲·高黛 Paulette Goddard
       理查德·加尔森 Richard Carlson
       Francisco Marán Francisco Marán
       Jack Norton Jack Norton
       诺贝·约翰逊 Noble Johnson
       罗伯特·瑞安 Robert Ryan
       Leonard Sues Leonard Sues
       拉里·斯蒂尔斯 Larry Steers
       凯斯图尔特 Kay Stewart
       Brick Sullivan Brick Sullivan
       Max Wagner Max Wagner
       Emmett Vogan Emmett Vogan
       Paul Newlan Paul Newlan
       格蕾斯·海尔 Grace Hayle
       David Durand David Durand
       Jack Edwards Jack Edwards
       保罗·卢卡斯 Paul Lukas
       劳埃德·科里根 Lloyd Corrigan
       安东尼·奎恩 Anthony Quinn
       道格拉斯肯尼迪 Douglas Kennedy
       保罗·菲克斯 Paul Fix
       科尔多瓦佩德罗 Pedro de Cordoba
       威利·贝斯特 Willie Best
       弗吉尼亚·布里萨克 Virginia Brissac
       詹姆斯·弗莱文 James Flavin
       汤姆·杜根 Tom Dugan
       罗伯特·埃利奥特 Robert Elliott
       多萝丝·莫兰 Dolores Moran
       小阿瑟·霍恩布洛 Arthur Hornblow Jr.
       威廉·勒巴伦 William LeBaron
       恩斯特·托奇 Ernst Toch
       维克多·杨 Victor Young
       查尔斯·朗 Charles Lang
       埃尔斯沃斯·侯格兰德 Ellsworth Hoagland
       罗伯特·阿舍尔 Robert Usher
       汉斯·德雷尔 Hans Dreier
       伊迪丝·海德 Edith Head
       Mel Epstein Mel Epstein
◎简  介
  A radio broadcaster, his quaking manservant and an heiress investigate the mystery of a haunted castle in Cuba.
  1. Video
  2. ID                                       : 1
  3. Format                                   : AVC
  4. Format/Info                              : Advanced Video Codec
  5. Format profile                           : [email protected]
  6. Format settings                          : CABAC / 11 Ref Frames
  7. Format settings, CABAC                   : Yes
  8. Format settings, Reference frames        : 11 frames
  9. Codec ID                                 : V_MPEG4/ISO/AVC
  10. Duration                                 : 1 h 24 min
  11. Bit rate                                 : 8 777 kb/s
  12. Width                                    : 986 pixels
  13. Height                                   : 720 pixels
  14. Display aspect ratio                     : 4:3
  15. Frame rate mode                          : Constant
  16. Frame rate                               : 23.976 (24000/1001) FPS
  17. Color space                              : YUV
  18. Chroma subsampling                       : 4:2:0
  19. Bit depth                                : 8 bits
  20. Scan type                                : Progressive
  21. Bits/(Pixel*Frame)                       : 0.516
  22. Stream size                              : 5.20 GiB (90%)
  23. Writing library                          : x264 core 164 r3102 416e3eb
  24. Encoding settings                        : cabac=1 / ref=11 / deblock=1:-3:-3 / analyse=0x3:0x133 / me=umh / subme=10 / psy=1 / psy_rd=1.20:0.00 / mixed_ref=1 / me_range=24 / chroma_me=1 / trellis=2 / 8x8dct=1 / cqm=0 / deadzone=21,11 / fast_pskip=0 / chroma_qp_offset=-2 / threads=22 / lookahead_threads=3 / sliced_threads=0 / nr=0 / decimate=0 / interlaced=0 / bluray_compat=0 / constrained_intra=0 / bframes=8 / b_pyramid=2 / b_adapt=2 / b_bias=0 / direct=3 / weightb=1 / open_gop=0 / weightp=2 / keyint=250 / keyint_min=23 / scenecut=40 / intra_refresh=0 / rc_lookahead=60 / rc=crf / mbtree=1 / crf=17.0 / qcomp=0.60 / qpmin=0 / qpmax=69 / qpstep=4 / ip_ratio=1.40 / aq=3:0.90
  25. Default                                  : Yes
  26. Forced                                   : No
  27. Color range                              : Limited
  28. Matrix coefficients                      : BT.709
  29. Audio #1
  30. ID                                       : 2
  31. Format                                   : FLAC
  32. Format/Info                              : Free Lossless Audio Codec
  33. Codec ID                                 : A_FLAC
  34. Duration                                 : 1 h 24 min
  35. Bit rate mode                            : Variable
  36. Bit rate                                 : 901 kb/s
  37. Channel(s)                               : 2 channels
  38. Channel layout                           : L R
  39. Sampling rate                            : 48.0 kHz
  40. Frame rate                               : 11.719 FPS (4096 SPF)
  41. Bit depth                                : 24 bits
  42. Compression mode                         : Lossless
  43. Stream size                              : 547 MiB (9%)
  44. Writing library                          : libFLAC 1.3.3 (UTC 2019-08-04)
  45. Language                                 : English
  46. Default                                  : Yes
  47. Forced                                   : No
  48. Audio #2
  49. ID                                       : 3
  50. Format                                   : AAC LC
  51. Format/Info                              : Advanced Audio Codec Low Complexity
  52. Codec ID                                 : A_AAC-2
  53. Duration                                 : 1 h 24 min
  54. Bit rate                                 : 92.9 kb/s
  55. Channel(s)                               : 2 channels
  56. Channel layout                           : L R
  57. Sampling rate                            : 48.0 kHz
  58. Frame rate                               : 46.875 FPS (1024 SPF)
  59. Compression mode                         : Lossy
  60. Delay relative to video                  : 20 ms
  61. Stream size                              : 56.4 MiB (1%)
  62. Title                                    : Commentary
  63. Language                                 : English
  64. Default                                  : No
  65. Forced                                   : No
  66. Text
  67. ID                                       : 4
  68. Format                                   : PGS
  69. Muxing mode                              : zlib
  70. Codec ID                                 : S_HDMV/PGS
  71. Codec ID/Info                            : Picture based subtitle format used on BDs/HD-DVDs
  72. Duration                                 : 1 h 24 min
  73. Bit rate                                 : 62.4 kb/s
  74. Count of elements                        : 3737
  75. Stream size                              : 37.7 MiB (1%)
  76. Title                                    : SDH
  77. Language                                 : English
  78. Default                                  : No
  79. Forced                                   : No
  80. Menu
  81. 00:00:00.000                             : Chapter 01
  82. 00:08:18.498                             : Chapter 02
  83. 00:17:54.782                             : Chapter 03
  84. 00:28:12.399                             : Chapter 04
  85. 00:36:34.692                             : Chapter 05
  86. 00:48:08.761                             : Chapter 06
  87. 00:58:18.286                             : Chapter 07
  88. 01:07:45.353                             : Chapter 08
  89. 01:17:21.262                             : Chapter 09
复制代码









回复

使用道具 举报

懒得打字嘛,点击右侧快捷回复 【右侧内容,后台自定义】
您需要登录后才可以回帖 登录 | 立即加入

本版积分规则

Archiver|小黑屋| 蓝光电影网 |网站地图

Copyright © 2021 Comsenz Inc. Powered by 蓝光电影网

蓝光电影网

本站内容由用户自主分享和转载自互联网,转载目的在于传递更多信息,并不代表本网赞同其观点和对其真实性负责。

如有侵权、违反国家法律政策行为,请联系我们,我们会第一时间及时清除和处理!

举报反馈邮箱:[email protected]

快速回复 返回顶部 返回列表