找回密码

蓝光电影网

查看: 2859|回复: 9

[2160p-WEB] 比佛利山超级警探/妙探出差 Beverly.Hills.Cop.1984.2160p.AMZN.WEBRip.DDP5.1.x264-AJP69 34.44GB

[复制链接]
蓝光币
886
发表于 2020-1-23 21:07:15 | 显示全部楼层 |阅读模式
比佛利山超级警探/妙探出差 Beverly.Hills.Cop.1984.2160p.AMZN.WEBRip.DDP5.1.x264-AJP69 34.44GB-1.png

译  名 比佛利山超级警探 / 妙探出差(港) / 妙探出更 / 比佛利山警探 / 轰天雷 / 轰隆炮
片  名 Beverly Hills Cop
年  代 1984
产  地 美国
类  别 剧情 / 笑剧 / 行动 / 惊悚 / 犯罪
语  言 英语
上映日期 1984-12-05
IMDb评分  7.3/10 from 153547 users
IMDb链接  https://www.imdb.com/title/tt0086960
豆瓣评分 6.8/10 from 1742 users
豆瓣链接 https://movie.douban.com/subject/1301782/
片  长 105 分钟
导  演 Martin Brest
编  剧 Daniel Petrie Jr. / Danilo Bach
主  演 Eddie Murphy
       Judge Reinhold
       John Ashton
       Lisa Eilbacher
       Ronny Cox


标  签 笑剧 | 美国 | 行动 | 1984 | 美国电影 | 犯罪 | 警匪 | EddieMurphy

简  介  

  艾索(艾迪?墨菲 Eddie Murphy 饰)是底特律黑白两道的台甫人,身为警探,却也不时干些偷鸡摸狗的活动,而且他侦办案件时经常不按法式处事,下属对他非常头痛。此日,艾索由于敲诈烟贩而差点被解雇进来,幸亏好命运才免遭于难。
  艾索偶遇了一位刚出狱的好友,这人带着巨额的德国债券来到了底特律。两人重逢后未几,艾索的这位朋友就被谋杀了。深谙此事不简单,艾索起头了观察。他单独一人追踪怀疑人维克多来到了好莱坞的比佛利山,正当他预备上前盘问时,却被当地差人带回了警局。当艾索观察得知维多克简直在贩毒时,当地的警长赞成介入观察,却将艾索打发回故乡。艾索只好劝说当地的一位警察比利(祖德?莱茵霍尔德 Judge Reinhold 饰)和他合作,两人起头了擅自观察。

获奖情况  

  第57届奥斯卡金像奖(1985)
  最好原创剧本(提名) 小丹尼尔·皮特里 / 达尼洛·巴赫
  1. Video
  2. ID                                       : 1
  3. Format                                   : AVC
  4. Format/Info                              : Advanced Video Codec
  5. Format profile                           : [email protected]
  6. Format settings                          : CABAC / 5 Ref Frames
  7. Format settings, CABAC                   : Yes
  8. Format settings, Reference frames        : 5 frames
  9. Codec ID                                 : V_MPEG4/ISO/AVC
  10. Duration                                 : 1 h 45 min
  11. Bit rate                                 : 46.3 Mb/s
  12. Width                                    : 3 840 pixels
  13. Height                                   : 2 160 pixels
  14. Display aspect ratio                     : 16:9
  15. Frame rate mode                          : Constant
  16. Frame rate                               : 23.976 (24000/1001) FPS
  17. Color space                              : YUV
  18. Chroma subsampling                       : 4:2:0
  19. Bit depth                                : 8 bits
  20. Scan type                                : Progressive
  21. Bits/(Pixel*Frame)                       : 0.233
  22. Stream size                              : 34.0 GiB (99%)
  23. Writing library                          : x264 core 155 r2901 7d0ff22
  24. Encoding settings                        : cabac=1 / ref=5 / deblock=1:-3:-3 / analyse=0x3:0x133 / me=umh / subme=10 / psy=1 / psy_rd=1.00:0.00 / mixed_ref=1 / me_range=48 / chroma_me=1 / trellis=2 / 8x8dct=1 / cqm=0 / deadzone=21,11 / fast_pskip=0 / chroma_qp_offset=-2 / threads=12 / lookahead_threads=2 / sliced_threads=0 / nr=0 / decimate=0 / interlaced=0 / bluray_compat=0 / constrained_intra=0 / bframes=8 / b_pyramid=2 / b_adapt=2 / b_bias=0 / direct=3 / weightb=1 / open_gop=0 / weightp=2 / keyint=250 / keyint_min=23 / scenecut=40 / intra_refresh=0 / rc=crf / mbtree=0 / crf=20.0 / qcomp=0.60 / qpmin=0 / qpmax=69 / qpstep=4 / ip_ratio=1.40 / pb_ratio=1.30 / aq=3:0.70
  25. Default                                  : Yes
  26. Forced                                   : No

  27. Audio
  28. ID                                       : 2
  29. Format                                   : E-AC-3
  30. Format/Info                              : Enhanced AC-3
  31. Commercial name                          : Dolby Digital Plus
  32. Codec ID                                 : A_EAC3
  33. Duration                                 : 1 h 45 min
  34. Bit rate mode                            : Constant
  35. Bit rate                                 : 640 kb/s
  36. Channel(s)                               : 6 channels
  37. Channel layout                           : L R C LFE Ls Rs
  38. Sampling rate                            : 48.0 kHz
  39. Frame rate                               : 31.250 FPS (1536 SPF)
  40. Compression mode                         : Lossy
  41. Stream size                              : 481 MiB (1%)
  42. Language                                 : English
  43. Service kind                             : Complete Main
  44. Default                                  : Yes
  45. Forced                                   : No

  46. Text #1
  47. ID                                       : 3
  48. Format                                   : UTF-8
  49. Codec ID                                 : S_TEXT/UTF8
  50. Codec ID/Info                            : UTF-8 Plain Text
  51. Duration                                 : 1 h 43 min
  52. Bit rate                                 : 77 b/s
  53. Count of elements                        : 1730
  54. Stream size                              : 58.9 KiB (0%)
  55. Language                                 : English
  56. Default                                  : No
  57. Forced                                   : No

  58. Text #2
  59. ID                                       : 4
  60. Format                                   : UTF-8
  61. Codec ID                                 : S_TEXT/UTF8
  62. Codec ID/Info                            : UTF-8 Plain Text
  63. Duration                                 : 1 h 43 min
  64. Bit rate                                 : 78 b/s
  65. Count of elements                        : 1785
  66. Stream size                              : 59.8 KiB (0%)
  67. Title                                    : SDH
  68. Language                                 : English
  69. Default                                  : No
  70. Forced                                   : No
复制代码

比佛利山超级警探/妙探出差 Beverly.Hills.Cop.1984.2160p.AMZN.WEBRip.DDP5.1.x264-AJP69 34.44GB-2.png 比佛利山超级警探/妙探出差 Beverly.Hills.Cop.1984.2160p.AMZN.WEBRip.DDP5.1.x264-AJP69 34.44GB-3.png 比佛利山超级警探/妙探出差 Beverly.Hills.Cop.1984.2160p.AMZN.WEBRip.DDP5.1.x264-AJP69 34.44GB-4.png




回复

使用道具 举报

蓝光币
1124
发表于 2020-1-24 10:59:27 | 显示全部楼层
楼主发贴辛苦了,谢谢楼主分享!我觉得蓝光电影网是注册对了!
回复 支持 反对

使用道具 举报

蓝光币
1189
发表于 2020-1-24 11:05:20 | 显示全部楼层
老电影,真是老,哈哈哈。
回复 支持 反对

使用道具 举报

蓝光币
856
发表于 2020-1-26 16:21:28 | 显示全部楼层
谢谢楼主分享!
回复 支持 反对

使用道具 举报

蓝光币
238
发表于 2020-1-26 16:44:58 | 显示全部楼层
谢谢LZ分享下来看看
回复 支持 反对

使用道具 举报

蓝光币
1124
发表于 2020-1-28 14:17:11 | 显示全部楼层

楼主太厉害了!楼主,电影应该很好看我觉得蓝光电影网真是个好地方!
回复 支持 反对

使用道具 举报

蓝光币
1516
发表于 2020-1-29 12:07:32 | 显示全部楼层

这个帖子不回对不起自己!我想我是一天也不能离开蓝光电影网
回复 支持 反对

使用道具 举报

蓝光币
1189
发表于 2020-1-29 12:16:05 | 显示全部楼层
进来看看,多谢分享。。。
回复 支持 反对

使用道具 举报

蓝光币
1086
发表于 2020-1-29 15:15:23 | 显示全部楼层
感谢分享,乐于下载
回复 支持 反对

使用道具 举报

蓝光币
829
发表于 2020-2-1 00:19:25 | 显示全部楼层
楼主发贴辛苦了,谢谢楼主分享!我觉得蓝光电影网是注册对了!
回复 支持 反对

使用道具 举报

懒得打字嘛,点击右侧快捷回复 【右侧内容,后台自定义】
您需要登录后才可以回帖 登录 | 立即加入

本版积分规则

Archiver|小黑屋| 蓝光电影网 |网站地图

Copyright © 2021 Comsenz Inc. Powered by 蓝光电影网

蓝光电影网

本站内容由用户自主分享和转载自互联网,转载目的在于传递更多信息,并不代表本网赞同其观点和对其真实性负责。

如有侵权、违反国家法律政策行为,请联系我们,我们会第一时间及时清除和处理!

举报反馈邮箱:[email protected]

快速回复 返回顶部 返回列表