找回密码

蓝光电影网

查看: 896|回复: 3

[剧情] 这里好无聊快来接我 Its.Boring.Here.Pick.Me.Up.2018.JAPANESE.1080p.BluRay.x264.DTS-iKiW 9.01GB

[复制链接]
蓝光币
886
发表于 2020-1-26 11:18:58 | 显示全部楼层 |阅读模式
这里好无聊快来接我 Its.Boring.Here.Pick.Me.Up.2018.JAPANESE.1080p.BluRay.x264.DTS-iKiW 9.01GB-1.png

译  名 这里好无聊,快来接我 / Side Job / 到这里驱逐无聊
片  名 ここは退屈迎えに来て
年  代 2018
产  地 日本
类  别 剧情
语  言 日语
上映日期 2018-10-09(温哥华电影节) / 2018-10-19(日本)
IMDb评分  5.5/10 from 24 users
IMDb链接  https://www.imdb.com/title/tt8185442
豆瓣评分 6.0/10 from 721 users
豆瓣链接 https://movie.douban.com/subject/27054594/
片  长 98分钟
导  演 广木隆一 Ryuichi Hiroki
编  剧 樱井智也 Tomonari Sakurai / 山内麻里子 Mariko Yamauchi
主  演 桥本爱 Ai Hashimoto
       门胁麦 Mugi Kadowaki
       成田凌 Ryo Narita
       渡边大知 Daichi Watanabe
       岸井雪乃 Yukino Kishii
       内田理央 Rio Uchida
       柳百合菜 Yurina Yanagi
       片山友希 Yuki Katayama
       槙田雄司 Makita Sports
       泷内公美 Kumi Takiuchi


标  签 日本 | 2018 | 青春 | 剧情 | 小说改编 | 映画 | 长大 | 人生

简  介  

  <安昙春子着落不明>原作山内玛丽子另一部著名小说<到这里驱逐无聊>公布映画化,桥本爱主演,门脇麦&成田凌共演,广木隆一导演作品。故事以日益单一化,缺少首创性的社会布景展开,描写今世年轻人寻觅属于自己生活空间的青春物语。
  今朝电影已经拍摄终了,今年春季公映。
  1. Video
  2. ID                                       : 1
  3. Format                                   : AVC
  4. Format/Info                              : Advanced Video Codec
  5. Format profile                           : [email protected]
  6. Format settings                          : CABAC / 4 Ref Frames
  7. Format settings, CABAC                   : Yes
  8. Format settings, Reference frames        : 4 frames
  9. Codec ID                                 : V_MPEG4/ISO/AVC
  10. Duration                                 : 1 h 37 min
  11. Bit rate                                 : 11.6 Mb/s
  12. Width                                    : 1 920 pixels
  13. Height                                   : 1 038 pixels
  14. Display aspect ratio                     : 1.85:1
  15. Frame rate mode                          : Constant
  16. Frame rate                               : 23.976 (24000/1001) FPS
  17. Color space                              : YUV
  18. Chroma subsampling                       : 4:2:0
  19. Bit depth                                : 8 bits
  20. Scan type                                : Progressive
  21. Bits/(Pixel*Frame)                       : 0.244
  22. Stream size                              : 7.96 GiB (88%)
  23. Writing library                          : x264 core 129 r2245+704+36 8e61944 tMod+MixAQ [[email protected]:2:0 X86_64]
  24. Encoding settings                        : cabac=1 / ref=4 / deblock=1:-3:-3 / analyse=0x3:0x133 / me=umh / subme=11 / psy=1 / fade_compensate=0.00 / psy_rd=1.05:0.10 / mixed_ref=1 / me_range=64 / chroma_me=1 / trellis=2 / 8x8dct=1 / cqm=0 / deadzone=21,11 / fast_pskip=0 / chroma_qp_offset=-3 / threads=18 / lookahead_threads=3 / sliced_threads=0 / nr=0 / decimate=0 / interlaced=0 / bluray_compat=0 / constrained_intra=0 / fgo=0 / bframes=10 / b_pyramid=2 / b_adapt=2 / b_bias=0 / direct=3 / weightb=1 / open_gop=0 / weightp=2 / keyint=250 / keyint_min=23 / scenecut=40 / intra_refresh=0 / rc=2pass / mbtree=0 / bitrate=11650 / ratetol=1.0 / qcomp=0.70 / qpmin=0 / qpmax=69 / qpstep=4 / cplxblur=20.0 / qblur=0.5 / ip_ratio=1.40 / pb_ratio=1.30 / aq=1 / aq-strength=0.90 / aq-sensitivity=10.00 / aq-ifactor=1.00 / aq-pfactor=1.00 / aq-bfactor=1.00 / aq2=0
  25. Language                                 : Japanese
  26. Default                                  : Yes
  27. Forced                                   : No

  28. Audio
  29. ID                                       : 2
  30. Format                                   : DTS
  31. Format/Info                              : Digital Theater Systems
  32. Codec ID                                 : A_DTS
  33. Duration                                 : 1 h 37 min
  34. Bit rate mode                            : Constant
  35. Bit rate                                 : 1 509 kb/s
  36. Channel(s)                               : 6 channels
  37. Channel layout                           : C L R Ls Rs LFE
  38. Sampling rate                            : 48.0 kHz
  39. Frame rate                               : 93.750 FPS (512 SPF)
  40. Bit depth                                : 24 bits
  41. Compression mode                         : Lossy
  42. Stream size                              : 1.03 GiB (11%)
  43. Language                                 : Japanese
  44. Default                                  : Yes
  45. Forced                                   : No

  46. Text #1
  47. ID                                       : 3
  48. Format                                   : UTF-8
  49. Codec ID                                 : S_TEXT/UTF8
  50. Codec ID/Info                            : UTF-8 Plain Text
  51. Duration                                 : 1 h 33 min
  52. Bit rate                                 : 41 b/s
  53. Count of elements                        : 1027
  54. Stream size                              : 28.1 KiB (0%)
  55. Language                                 : English
  56. Default                                  : Yes
  57. Forced                                   : No

  58. Text #2
  59. ID                                       : 4
  60. Format                                   : ASS
  61. Codec ID                                 : S_TEXT/ASS
  62. Codec ID/Info                            : Advanced Sub Station Alpha
  63. Duration                                 : 1 h 37 min
  64. Bit rate                                 : 77 b/s
  65. Count of elements                        : 1108
  66. Compression mode                         : Lossless
  67. Stream size                              : 55.2 KiB (0%)
  68. Language                                 : Chinese
  69. Default                                  : No
  70. Forced                                   : No
复制代码

这里好无聊快来接我 Its.Boring.Here.Pick.Me.Up.2018.JAPANESE.1080p.BluRay.x264.DTS-iKiW 9.01GB-2.png 这里好无聊快来接我 Its.Boring.Here.Pick.Me.Up.2018.JAPANESE.1080p.BluRay.x264.DTS-iKiW 9.01GB-3.png 这里好无聊快来接我 Its.Boring.Here.Pick.Me.Up.2018.JAPANESE.1080p.BluRay.x264.DTS-iKiW 9.01GB-1.png






回复

使用道具 举报

蓝光币
80
发表于 2020-1-26 15:22:21 | 显示全部楼层

这个帖子不回对不起自己!我想我是一天也不能离开蓝光电影网
回复 支持 反对

使用道具 举报

蓝光币
50
发表于 2020-1-27 05:51:08 | 显示全部楼层
英雄儿女1964.1080i英雄儿女1964.1080i
回复 支持 反对

使用道具 举报

蓝光币
812
发表于 2020-1-28 15:08:44 | 显示全部楼层
谢谢楼主分享
回复 支持 反对

使用道具 举报

懒得打字嘛,点击右侧快捷回复 【右侧内容,后台自定义】
您需要登录后才可以回帖 登录 | 立即加入

本版积分规则

Archiver|小黑屋| 蓝光电影网 |网站地图

Copyright © 2021 Comsenz Inc. Powered by 蓝光电影网

蓝光电影网

本站内容由用户自主分享和转载自互联网,转载目的在于传递更多信息,并不代表本网赞同其观点和对其真实性负责。

如有侵权、违反国家法律政策行为,请联系我们,我们会第一时间及时清除和处理!

举报反馈邮箱:[email protected]

快速回复 返回顶部 返回列表