找回密码

蓝光电影网

查看: 1039|回复: 1

[剧情] 真英雄 In.the.Hero.2014.JAPANESE.1080p.BluRay.x264-iKiW 9.21GB

[复制链接]
蓝光币
1022
发表于 2020-1-26 11:20:54 | 显示全部楼层 |阅读模式
真豪杰 In.the.Hero.2014.JAPANESE.1080p.BluRay.x264-iKiW 9.21GB-1.png

译  名 真豪杰 / In the Hero
片  名 イン?ザ?ヒーロー
年  代 2014
产  地 日本
类  别 剧情
语  言 日语
上映日期 2014-09-06(日本)
IMDb评分  6.9/10 from 63 users
IMDb链接  https://www.imdb.com/title/tt3472210
豆瓣评分 7.0/10 from 770 users
豆瓣链接 https://movie.douban.com/subject/25812731/
导  演 武正晴 Masaharu Take
编  剧 李凤宇 Bong-Ou Lee / 水野敬也
主  演 唐泽寿明 Toshiaki Karasawa
       福士苍汰 S?ta Fukushi
       黑谷友香 Tomoka Kurotani
       寺岛进 Susumu Terajima
       草泽イニ
       日向丈
       小出惠介 Keisuke Koide
       及川光博 Mitsuhiro Oikawa
       杉咲花 Hana Sugisaki
       イ?ジュニク
       加藤雅也 Masaya Kat?
       松方弘树 Hiroki Matsukata
       和久井映见 Emi Wakui


标  签 日本 | 日本电影 | 行动 | 2014 | 励志 | 唐沢寿明 | 剧情 | 唐泽寿明

简  介  

  具有25年表演经历的本城涉(唐泽寿明 饰)是一位资深特技演员,他以社长身份经营特技公司HAC,与几多年密切无间的好兄弟们在摄像机和舞台前挥洒汗水,奋力拼搏。本城对电影有着凡人难以相比的酷爱,却是以疏忽了对妻子凛子(和久井映见 饰)和女儿(杉咲花 饰)的看护。他好不轻易获得一个正式演员的脚色,成果却希望失,而与之配戏的偶像一之濑良(福士苍汰 饰)则方兴未艾,构成鲜明的对照。一之濑风头正劲,傲岸自我,口口声声要站在奥斯卡的颁奖舞台之上,却对电影的幕后建造漠不关心。随着相处的加深,一之濑渐渐对本城抱以恭敬,他也起头尝试着专心考验自己的演技。
  与此同时,某好莱坞大建造行动电影在日本开拍,本城意外获得了出演一场极为危险的重头戏的机遇……

获奖情况  

  第38届日本电影学院奖(2015)
  最好新人 福士苍汰
  1. Video
  2. ID                                       : 1
  3. Format                                   : AVC
  4. Format/Info                              : Advanced Video Codec
  5. Format profile                           : [email protected]
  6. Format settings                          : CABAC / 4 Ref Frames
  7. Format settings, CABAC                   : Yes
  8. Format settings, Reference frames        : 4 frames
  9. Codec ID                                 : V_MPEG4/ISO/AVC
  10. Duration                                 : 2 h 3 min
  11. Bit rate                                 : 10 000 kb/s
  12. Width                                    : 1 920 pixels
  13. Height                                   : 1 036 pixels
  14. Display aspect ratio                     : 1.85:1
  15. Frame rate mode                          : Constant
  16. Frame rate                               : 23.976 (24000/1001) FPS
  17. Color space                              : YUV
  18. Chroma subsampling                       : 4:2:0
  19. Bit depth                                : 8 bits
  20. Scan type                                : Progressive
  21. Bits/(Pixel*Frame)                       : 0.210
  22. Stream size                              : 8.65 GiB (94%)
  23. Writing library                          : x264 core 129 r2245+704+36 8e61944 tMod+MixAQ [[email protected]:2:0 X86_64]
  24. Encoding settings                        : cabac=1 / ref=4 / deblock=1:-3:-3 / analyse=0x3:0x133 / me=umh / subme=11 / psy=1 / fade_compensate=0.00 / psy_rd=1.05:0.10 / mixed_ref=1 / me_range=64 / chroma_me=1 / trellis=2 / 8x8dct=1 / cqm=0 / deadzone=21,11 / fast_pskip=0 / chroma_qp_offset=-3 / threads=18 / lookahead_threads=3 / sliced_threads=0 / nr=0 / decimate=0 / interlaced=0 / bluray_compat=0 / constrained_intra=0 / fgo=0 / bframes=10 / b_pyramid=2 / b_adapt=2 / b_bias=0 / direct=3 / weightb=1 / open_gop=0 / weightp=2 / keyint=250 / keyint_min=23 / scenecut=40 / intra_refresh=0 / rc_lookahead=80 / rc=2pass / mbtree=1 / bitrate=10000 / ratetol=1.0 / qcomp=0.70 / qpmin=0 / qpmax=69 / qpstep=4 / cplxblur=20.0 / qblur=0.5 / ip_ratio=1.40 / aq=3 / aq-strength=0.85 / aq-sensitivity=10.00 / aq-ifactor=1.00 / aq-pfactor=1.00 / aq-bfactor=1.00 / aq2=0
  25. Language                                 : Japanese
  26. Default                                  : Yes
  27. Forced                                   : No

  28. Audio
  29. ID                                       : 2
  30. Format                                   : AC-3
  31. Format/Info                              : Audio Coding 3
  32. Commercial name                          : Dolby Digital
  33. Codec ID                                 : A_AC3
  34. Duration                                 : 2 h 3 min
  35. Bit rate mode                            : Constant
  36. Bit rate                                 : 640 kb/s
  37. Channel(s)                               : 6 channels
  38. Channel layout                           : L R C LFE Ls Rs
  39. Sampling rate                            : 48.0 kHz
  40. Frame rate                               : 31.250 FPS (1536 SPF)
  41. Bit depth                                : 16 bits
  42. Compression mode                         : Lossy
  43. Stream size                              : 567 MiB (6%)
  44. Language                                 : Japanese
  45. Service kind                             : Complete Main
  46. Default                                  : Yes
  47. Forced                                   : No

  48. Text #1
  49. ID                                       : 3
  50. Format                                   : UTF-8
  51. Codec ID                                 : S_TEXT/UTF8
  52. Codec ID/Info                            : UTF-8 Plain Text
  53. Duration                                 : 2 h 2 min
  54. Bit rate                                 : 37 b/s
  55. Count of elements                        : 1168
  56. Stream size                              : 33.8 KiB (0%)
  57. Language                                 : English
  58. Default                                  : Yes
  59. Forced                                   : No

  60. Text #2
  61. ID                                       : 4
  62. Format                                   : ASS
  63. Codec ID                                 : S_TEXT/ASS
  64. Codec ID/Info                            : Advanced Sub Station Alpha
  65. Duration                                 : 2 h 3 min
  66. Bit rate                                 : 69 b/s
  67. Count of elements                        : 1598
  68. Compression mode                         : Lossless
  69. Stream size                              : 62.9 KiB (0%)
  70. Title                                    : Simplified
  71. Language                                 : Chinese
  72. Default                                  : No
  73. Forced                                   : No

  74. Text #3
  75. ID                                       : 5
  76. Format                                   : ASS
  77. Codec ID                                 : S_TEXT/ASS
  78. Codec ID/Info                            : Advanced Sub Station Alpha
  79. Duration                                 : 2 h 3 min
  80. Bit rate                                 : 69 b/s
  81. Count of elements                        : 1598
  82. Compression mode                         : Lossless
  83. Stream size                              : 62.9 KiB (0%)
  84. Title                                    : Traditional
  85. Language                                 : Chinese
  86. Default                                  : No
  87. Forced                                   : No

  88. Menu
  89. 00:00:00.000                             : en:00:00:00.000
  90. 00:07:33.453                             : en:00:07:33.453
  91. 00:15:09.617                             : en:00:15:09.617
  92. 00:23:10.138                             : en:00:23:10.138
  93. 00:30:32.872                             : en:00:30:32.872
  94. 00:38:21.465                             : en:00:38:21.465
  95. 00:45:34.732                             : en:00:45:34.732
  96. 00:52:25.475                             : en:00:52:25.475
  97. 01:03:05.281                             : en:01:03:05.281
  98. 01:11:37.793                             : en:01:11:37.793
  99. 01:21:19.666                             : en:01:21:19.666
  100. 01:28:36.352                             : en:01:28:36.352
  101. 01:34:46.180                             : en:01:34:46.180
  102. 01:42:01.240                             : en:01:42:01.240
  103. 01:49:37.195                             : en:01:49:37.195
  104. 01:56:48.626                             : en:01:56:48.626
  105. 02:03:49.422                             : en:02:03:49.422
复制代码

真豪杰 In.the.Hero.2014.JAPANESE.1080p.BluRay.x264-iKiW 9.21GB-2.png 真豪杰 In.the.Hero.2014.JAPANESE.1080p.BluRay.x264-iKiW 9.21GB-3.png 真豪杰 In.the.Hero.2014.JAPANESE.1080p.BluRay.x264-iKiW 9.21GB-1.png






回复

使用道具 举报

蓝光币
80
发表于 2020-1-26 14:32:41 | 显示全部楼层
楼主发贴辛苦了,谢谢楼主分享!我觉得蓝光电影网是注册对了!
回复 支持 反对

使用道具 举报

懒得打字嘛,点击右侧快捷回复 【右侧内容,后台自定义】
您需要登录后才可以回帖 登录 | 立即加入

本版积分规则

Archiver|小黑屋| 蓝光电影网 |网站地图

Copyright © 2021 Comsenz Inc. Powered by 蓝光电影网

蓝光电影网

本站内容由用户自主分享和转载自互联网,转载目的在于传递更多信息,并不代表本网赞同其观点和对其真实性负责。

如有侵权、违反国家法律政策行为,请联系我们,我们会第一时间及时清除和处理!

举报反馈邮箱:[email protected]

快速回复 返回顶部 返回列表