找回密码

蓝光电影网

查看: 163|回复: 0

[惊悚] 针扎 Needlestick.2017.1080p.WEB-DL.DD5.1.H264-FGT 3.32GB

[复制链接]
蓝光币
886
发表于 2020-1-28 16:46:56 | 显示全部楼层 |阅读模式
针扎 Needlestick.2017.1080p.WEB-DL.DD5.1.H264-FGT 3.32GB-1.png

译  名 针扎
片  名 Needlestick
年  代 2016
产  地 美国
类  别 惊悚 / 可骇
语  言 英语
上映日期 2017-02-21(美国)
IMDb评分  3.5/10 from 263 users
IMDb链接  https://www.imdb.com/title/tt2523096
豆瓣评分 0/10 from 0 users
豆瓣链接 https://movie.douban.com/subject/26881665/
片  长 88分钟
导  演 Steven Karageanes
编  剧 Steven Karageanes
主  演 兰斯·亨利克森 Lance Henriksen
       哈里·列尼斯 Harry Lennix
       杰克·诺斯沃迪 Jack Noseworthy
       迈克尔·特拉诺尔 Michael Traynor
       Jordan Trovillion
       凯蒂·萨沃伊 Katie Savoy
       Cindy Chu
       Alara Ceri
       Anita Nicole Brown
       Stan Harrington
       Tim Kaiser
       Wayne David Parker
       Linda Boston
       Nancy Lynette Parker
       Rashontae Wawrzyniak


标  签 科幻 | 可骇 | 惊悚 | 美国电影

简  介  

  A desperate doctor locks down South Union Cardiac Hospital to keep the greatest discovery in human history to himself, while a young intern races to save a dying young dancer, his ex-girlfriend, and his best friend, and stop his mentor.
  1. Video
  2. ID                                       : 1
  3. Format                                   : AVC
  4. Format/Info                              : Advanced Video Codec
  5. Format profile                           : [email protected]
  6. Format settings                          : CABAC / 4 Ref Frames
  7. Format settings, CABAC                   : Yes
  8. Format settings, Reference frames        : 4 frames
  9. Codec ID                                 : V_MPEG4/ISO/AVC
  10. Duration                                 : 1 h 25 min
  11. Bit rate                                 : 5 092 kb/s
  12. Width                                    : 1 904 pixels
  13. Height                                   : 1 064 pixels
  14. Display aspect ratio                     : 16:9
  15. Frame rate mode                          : Constant
  16. Frame rate                               : 23.976 (24000/1001) FPS
  17. Color space                              : YUV
  18. Chroma subsampling                       : 4:2:0
  19. Bit depth                                : 8 bits
  20. Scan type                                : Progressive
  21. Bits/(Pixel*Frame)                       : 0.105
  22. Stream size                              : 3.03 GiB (91%)
  23. Title                                    : Needlestick.2017.1080p.WEB-DL.DD5.1.H264-FGT
  24. Language                                 : English
  25. Default                                  : Yes
  26. Forced                                   : No
  27. Color range                              : Limited
  28. Color primaries                          : BT.709
  29. Transfer characteristics                 : BT.709
  30. Matrix coefficients                      : BT.709

  31. Audio
  32. ID                                       : 2
  33. Format                                   : AC-3
  34. Format/Info                              : Audio Coding 3
  35. Commercial name                          : Dolby Digital
  36. Codec ID                                 : A_AC3
  37. Duration                                 : 1 h 25 min
  38. Bit rate mode                            : Constant
  39. Bit rate                                 : 384 kb/s
  40. Channel(s)                               : 6 channels
  41. Channel layout                           : L R C LFE Ls Rs
  42. Sampling rate                            : 48.0 kHz
  43. Frame rate                               : 31.250 FPS (1536 SPF)
  44. Bit depth                                : 16 bits
  45. Compression mode                         : Lossy
  46. Stream size                              : 234 MiB (7%)
  47. Title                                    : Needlestick.2017.1080p.WEB-DL.DD5.1.H264-FGT
  48. Language                                 : English
  49. Service kind                             : Complete Main
  50. Default                                  : Yes
  51. Forced                                   : No

  52. Text
  53. ID                                       : 3
  54. Format                                   : UTF-8
  55. Codec ID                                 : S_TEXT/UTF8
  56. Codec ID/Info                            : UTF-8 Plain Text
  57. Language                                 : English
  58. Default                                  : Yes
  59. Forced                                   : No

  60. Menu
  61. 00:00:00.000                             : en:Waking Up
  62. 00:01:18.078                             : en:Opening Credits
  63. 00:02:15.135                             : en:Earlier That Day
  64. 00:03:40.220                             : en:Seeing Marie
  65. 00:05:04.304                             : en:Finding Crick
  66. 00:07:21.441                             : en:Med Floor
  67. 00:08:42.522                             : en:Running the Code
  68. 00:09:53.593                             : en:Why the Jellyfish?
  69. 00:10:59.659                             : en:LeGro
  70. 00:13:46.826                             : en:Cricka€?S Plan
  71. 00:17:31.050                             : en:Sarah
  72. 00:19:27.166                             : en:James
  73. 00:21:10.269                             : en:Marie and Sarah
  74. 00:22:35.354                             : en:Boris Creeping
  75. 00:23:15.394                             : en:James on the Loose
  76. 00:23:47.426                             : en:Everett and Ginny
  77. 00:26:24.583                             : en:Dosing Up
  78. 00:27:08.627                             : en:Nightfall
  79. 00:29:08.747                             : en:Nobel Prize
  80. 00:31:44.903                             : en:Attack
  81. 00:34:36.074                             : en:Jamesa€? Mom
  82. 00:36:08.166                             : en:The Floor
  83. 00:38:50.328                             : en:One Eye Open
  84. 00:39:34.372                             : en:Stalking Marie
  85. 00:43:40.618                             : en:In Hiding
  86. 00:47:25.843                             : en:A Problem
  87. 00:48:57.935                             : en:Stitches
  88. 00:53:10.187                             : en:New Plan
  89. 00:54:42.279                             : en:Leaving the Room
  90. 00:58:57.534                             : en:Tears
  91. 01:01:51.708                             : en:Disarming
  92. 01:05:44.941                             : en:Escape
  93. 01:08:14.090                             : en:Main Hospital
  94. 01:09:58.194                             : en:Morgue
  95. 01:12:06.322                             : en:Confrontation
  96. 01:17:26.642                             : en:Last Breath
  97. 01:19:28.764                             : en:Dancing Again
复制代码

针扎 Needlestick.2017.1080p.WEB-DL.DD5.1.H264-FGT 3.32GB-2.png 针扎 Needlestick.2017.1080p.WEB-DL.DD5.1.H264-FGT 3.32GB-3.png 针扎 Needlestick.2017.1080p.WEB-DL.DD5.1.H264-FGT 3.32GB-1.png 针扎 Needlestick.2017.1080p.WEB-DL.DD5.1.H264-FGT 3.32GB-5.png 针扎 Needlestick.2017.1080p.WEB-DL.DD5.1.H264-FGT 3.32GB-2.png 针扎 Needlestick.2017.1080p.WEB-DL.DD5.1.H264-FGT 3.32GB-7.png






回复

使用道具 举报

懒得打字嘛,点击右侧快捷回复 【右侧内容,后台自定义】
您需要登录后才可以回帖 登录 | 立即加入

本版积分规则

Archiver|小黑屋| 蓝光电影网 |网站地图

Copyright © 2021 Comsenz Inc. Powered by 蓝光电影网

蓝光电影网

本站内容由用户自主分享和转载自互联网,转载目的在于传递更多信息,并不代表本网赞同其观点和对其真实性负责。

如有侵权、违反国家法律政策行为,请联系我们,我们会第一时间及时清除和处理!

举报反馈邮箱:[email protected]

快速回复 返回顶部 返回列表