找回密码

蓝光电影网

查看: 284|回复: 0

[惊悚] 200度 200.Degrees.2017.1080p.WEB-DL.DD5.1.H264-FGT 3.61GB

[复制链接]
蓝光币
1022
发表于 2020-1-28 16:48:51 | 显示全部楼层 |阅读模式
200度 200.Degrees.2017.1080p.WEB-DL.DD5.1.H264-FGT 3.61GB-1.png

译  名 200度 / Burn
片  名 200 Degrees
年  代 2017
产  地 美国
类  别 惊悚
语  言 英语
上映日期 2017-06-06(美国)
IMDb评分  4.3/10 from 465 users
IMDb链接  https://www.imdb.com/title/tt4762592
豆瓣评分 0/10 from 0 users
豆瓣链接 https://movie.douban.com/subject/26986878/
导  演 Giorgio Serafini
编  剧 Garry Charles
主  演 艾里克·巴弗尔 Eric Balfour
       LaDon Drummond
       拉里·韦德·卡瑞尔 Larry Wade Carrell


标  签 悬疑 | 美国 | 犯罪 | 惊悚 | 剧情 | 惊悚&灾难 | 烂片 | 可骇

简  介  

  Ryan Hinds awakes inside a sealed industrial kiln. He is set challenges by a voice with no face, pushed to the limits of human endurance as the temperature within the kiln begins to rise.
  1. Video
  2. ID                                       : 1
  3. Format                                   : AVC
  4. Format/Info                              : Advanced Video Codec
  5. Format profile                           : [email protected]
  6. Format settings                          : CABAC / 4 Ref Frames
  7. Format settings, CABAC                   : Yes
  8. Format settings, Reference frames        : 4 frames
  9. Codec ID                                 : V_MPEG4/ISO/AVC
  10. Duration                                 : 1 h 31 min
  11. Bit rate                                 : 5 160 kb/s
  12. Width                                    : 1 908 pixels
  13. Height                                   : 1 068 pixels
  14. Display aspect ratio                     : 16:9
  15. Frame rate mode                          : Constant
  16. Frame rate                               : 23.976 (24000/1001) FPS
  17. Color space                              : YUV
  18. Chroma subsampling                       : 4:2:0
  19. Bit depth                                : 8 bits
  20. Scan type                                : Progressive
  21. Bits/(Pixel*Frame)                       : 0.106
  22. Stream size                              : 3.29 GiB (91%)
  23. Title                                    : 200.Degrees.2017.1080p.WEB-DL.DD5.1.H264-FGT
  24. Language                                 : English
  25. Default                                  : Yes
  26. Forced                                   : No
  27. Color range                              : Limited
  28. Color primaries                          : BT.709
  29. Transfer characteristics                 : BT.709
  30. Matrix coefficients                      : BT.709

  31. Audio
  32. ID                                       : 2
  33. Format                                   : AC-3
  34. Format/Info                              : Audio Coding 3
  35. Commercial name                          : Dolby Digital
  36. Codec ID                                 : A_AC3
  37. Duration                                 : 1 h 31 min
  38. Bit rate mode                            : Constant
  39. Bit rate                                 : 384 kb/s
  40. Channel(s)                               : 6 channels
  41. Channel layout                           : L R C LFE Ls Rs
  42. Sampling rate                            : 48.0 kHz
  43. Frame rate                               : 31.250 FPS (1536 SPF)
  44. Bit depth                                : 16 bits
  45. Compression mode                         : Lossy
  46. Stream size                              : 251 MiB (7%)
  47. Title                                    : 200.Degrees.2017.1080p.WEB-DL.DD5.1.H264-FGT
  48. Language                                 : English
  49. Service kind                             : Complete Main
  50. Default                                  : Yes
  51. Forced                                   : No

  52. Text
  53. ID                                       : 3
  54. Format                                   : UTF-8
  55. Codec ID                                 : S_TEXT/UTF8
  56. Codec ID/Info                            : UTF-8 Plain Text
  57. Language                                 : English
  58. Default                                  : Yes
  59. Forced                                   : No

  60. Menu
  61. 00:00:00.000                             : en:1
  62. 00:02:31.000                             : en:2
  63. 00:11:15.000                             : en:3
  64. 00:21:55.000                             : en:4
  65. 00:31:22.000                             : en:5
  66. 00:42:07.000                             : en:6
  67. 00:53:05.000                             : en:7
  68. 01:00:17.000                             : en:8
  69. 01:14:22.000                             : en:9
  70. 01:28:31.000                             : en:10
复制代码

200度 200.Degrees.2017.1080p.WEB-DL.DD5.1.H264-FGT 3.61GB-2.png 200度 200.Degrees.2017.1080p.WEB-DL.DD5.1.H264-FGT 3.61GB-3.png 200度 200.Degrees.2017.1080p.WEB-DL.DD5.1.H264-FGT 3.61GB-4.png 200度 200.Degrees.2017.1080p.WEB-DL.DD5.1.H264-FGT 3.61GB-5.png 200度 200.Degrees.2017.1080p.WEB-DL.DD5.1.H264-FGT 3.61GB-6.png 200度 200.Degrees.2017.1080p.WEB-DL.DD5.1.H264-FGT 3.61GB-7.png






回复

使用道具 举报

懒得打字嘛,点击右侧快捷回复 【右侧内容,后台自定义】
您需要登录后才可以回帖 登录 | 立即加入

本版积分规则

Archiver|小黑屋| 蓝光电影网 |网站地图

Copyright © 2021 Comsenz Inc. Powered by 蓝光电影网

蓝光电影网

本站内容由用户自主分享和转载自互联网,转载目的在于传递更多信息,并不代表本网赞同其观点和对其真实性负责。

如有侵权、违反国家法律政策行为,请联系我们,我们会第一时间及时清除和处理!

举报反馈邮箱:[email protected]

快速回复 返回顶部 返回列表