找回密码

蓝光电影网

查看: 236|回复: 0

[恐怖] 宿舍 The.Dorm.2014.1080p.WEB-DL.DD5.1.H264-FGT 2.92GB

[复制链接]
蓝光币
886
发表于 2020-1-28 16:51:20 | 显示全部楼层 |阅读模式
宿舍 The.Dorm.2014.1080p.WEB-DL.DD5.1.H264-FGT 2.92GB-1.png

译  名 宿舍
片  名 The Dorm
年  代 2014
产  地 美国
类  别 可骇
上映日期 2014-10-26(美国)
IMDb评分  4.1/10 from 827 users
IMDb链接  https://www.imdb.com/title/tt3587064
豆瓣评分 0/10 from 0 users
豆瓣链接 https://movie.douban.com/subject/26230700/
片  长 79分钟
导  演 Rachel Talalay
编  剧 肖恩·胡德
主  演 卡西斯蒂尔
       杰克克罗克
       马尔蒂·乔杜里


标  签 惊悚 | 悬疑 | 2014 | 美国 | 附魔

简  介  

  宿舍是一个心理可骇电影,围绕着一个为难的大学一年级门生谁与首要自负题目斗争,可是履历了一个转型
  成一个完善|养眼美男在她的新室友的手中。卡西斯蒂尔和马克斯·劳埃德·琼斯也明星。
  1. Video
  2. ID                                       : 1
  3. Format                                   : AVC
  4. Format/Info                              : Advanced Video Codec
  5. Format profile                           : [email protected]
  6. Format settings                          : CABAC / 4 Ref Frames
  7. Format settings, CABAC                   : Yes
  8. Format settings, Reference frames        : 4 frames
  9. Codec ID                                 : V_MPEG4/ISO/AVC
  10. Duration                                 : 1 h 19 min
  11. Bit rate                                 : 4 752 kb/s
  12. Width                                    : 1 920 pixels
  13. Height                                   : 1 080 pixels
  14. Display aspect ratio                     : 16:9
  15. Frame rate mode                          : Constant
  16. Frame rate                               : 23.976 FPS
  17. Color space                              : YUV
  18. Chroma subsampling                       : 4:2:0
  19. Bit depth                                : 8 bits
  20. Scan type                                : Progressive
  21. Bits/(Pixel*Frame)                       : 0.096
  22. Stream size                              : 2.64 GiB (91%)
  23. Title                                    : The.Dorm.2014.1080p.WEB-DL.DD5.1.H264-FGT
  24. Language                                 : English
  25. Default                                  : Yes
  26. Forced                                   : No
  27. Color range                              : Limited
  28. Color primaries                          : BT.709
  29. Transfer characteristics                 : BT.709
  30. Matrix coefficients                      : BT.709

  31. Audio
  32. ID                                       : 2
  33. Format                                   : AC-3
  34. Format/Info                              : Audio Coding 3
  35. Commercial name                          : Dolby Digital
  36. Codec ID                                 : A_AC3
  37. Duration                                 : 1 h 19 min
  38. Bit rate mode                            : Constant
  39. Bit rate                                 : 384 kb/s
  40. Channel(s)                               : 6 channels
  41. Channel layout                           : L R C LFE Ls Rs
  42. Sampling rate                            : 48.0 kHz
  43. Frame rate                               : 31.250 FPS (1536 SPF)
  44. Bit depth                                : 16 bits
  45. Compression mode                         : Lossy
  46. Stream size                              : 219 MiB (7%)
  47. Title                                    : The.Dorm.2014.1080p.WEB-DL.DD5.1.H264-FGT
  48. Language                                 : English
  49. Service kind                             : Complete Main
  50. Default                                  : Yes
  51. Forced                                   : No

  52. Menu
  53. 00:00:00.000                             : en:1
  54. 00:07:08.000                             : en:2
  55. 00:10:58.000                             : en:3
  56. 00:14:56.000                             : en:4
  57. 00:21:18.000                             : en:5
  58. 00:23:51.000                             : en:6
  59. 00:29:56.000                             : en:7
  60. 00:34:15.000                             : en:8
  61. 00:40:18.000                             : en:9
  62. 00:43:54.000                             : en:10
  63. 00:48:23.000                             : en:11
  64. 00:53:05.000                             : en:12
  65. 01:00:41.000                             : en:13
  66. 01:05:08.000                             : en:14
  67. 01:11:28.000                             : en:15
  68. 01:15:19.000                             : en:16
复制代码

宿舍 The.Dorm.2014.1080p.WEB-DL.DD5.1.H264-FGT 2.92GB-2.png 宿舍 The.Dorm.2014.1080p.WEB-DL.DD5.1.H264-FGT 2.92GB-3.png 宿舍 The.Dorm.2014.1080p.WEB-DL.DD5.1.H264-FGT 2.92GB-4.png 宿舍 The.Dorm.2014.1080p.WEB-DL.DD5.1.H264-FGT 2.92GB-5.png 宿舍 The.Dorm.2014.1080p.WEB-DL.DD5.1.H264-FGT 2.92GB-6.png 宿舍 The.Dorm.2014.1080p.WEB-DL.DD5.1.H264-FGT 2.92GB-7.png






回复

使用道具 举报

懒得打字嘛,点击右侧快捷回复 【右侧内容,后台自定义】
您需要登录后才可以回帖 登录 | 立即加入

本版积分规则

Archiver|小黑屋| 蓝光电影网 |网站地图

Copyright © 2021 Comsenz Inc. Powered by 蓝光电影网

蓝光电影网

本站内容由用户自主分享和转载自互联网,转载目的在于传递更多信息,并不代表本网赞同其观点和对其真实性负责。

如有侵权、违反国家法律政策行为,请联系我们,我们会第一时间及时清除和处理!

举报反馈邮箱:[email protected]

快速回复 返回顶部 返回列表