找回密码

蓝光电影网

查看: 182|回复: 0

[惊悚] 无尽的黑暗/蔓延的黑暗 Spreading.Darkness.2017.1080p.WEB-DL.DD5.1.H264-FGT 3.58GB

[复制链接]
蓝光币
1020
发表于 2020-1-28 16:55:13 | 显示全部楼层 |阅读模式
无尽的黑暗/舒展的黑暗 Spreading.Darkness.2017.1080p.WEB-DL.DD5.1.H264-FGT 3.58GB-1.png

译  名 无尽的黑暗 / 舒展的黑暗
片  名 Spreading Darkness
年  代 2013
产  地 美国
类  别 惊悚
语  言 英语
上映日期 2017-12-29(美国)
IMDb评分  3.5/10 from 114 users
IMDb链接  https://www.imdb.com/title/tt1791611
豆瓣评分 0/10 from 0 users
豆瓣链接 https://movie.douban.com/subject/6874563/
片  长 101分钟
导  演 Josh Eisenstadt
编  剧 Josh Eisenstadt / Aaron Pope
主  演 埃里克·罗伯茨 Eric Roberts
       约翰·萨维奇 John Savage
       James Duval
       穆赛塔·万德 Musetta Vander
       艾琳·贝达 Irene Bedard


标  签 StrongR

简  介  

  Stu Undercoffler(埃里克·罗伯茨饰演)是一位败北的首席履行官,他的权利驱使他做出了一些很是不道德的决议。 他的不道德挑选已经起头在全部天下传布黑暗,就没有停止。 在落空妻子以后,Stu起头出现知己危机,但起头思疑自己正在被追捕并引发幻觉。 他能否丢失了自己的想法,大概让他的前任受害者返来肆虐他? 一个前卫的心理惊悚片,电影的真正配角能够是黑暗自己。
  1. Video
  2. ID                                       : 1
  3. Format                                   : AVC
  4. Format/Info                              : Advanced Video Codec
  5. Format profile                           : [email protected]
  6. Format settings                          : CABAC / 5 Ref Frames
  7. Format settings, CABAC                   : Yes
  8. Format settings, Reference frames        : 5 frames
  9. Codec ID                                 : V_MPEG4/ISO/AVC
  10. Duration                                 : 1 h 43 min
  11. Bit rate                                 : 4 487 kb/s
  12. Width                                    : 1 916 pixels
  13. Height                                   : 796 pixels
  14. Display aspect ratio                     : 2.40:1
  15. Frame rate mode                          : Constant
  16. Frame rate                               : 23.976 (24000/1001) FPS
  17. Color space                              : YUV
  18. Chroma subsampling                       : 4:2:0
  19. Bit depth                                : 8 bits
  20. Scan type                                : Progressive
  21. Bits/(Pixel*Frame)                       : 0.123
  22. Stream size                              : 3.24 GiB (90%)
  23. Title                                    : Spreading.Darkness.2017.1080p.WEB-DL.DD5.1.H264-FGT
  24. Language                                 : English
  25. Default                                  : Yes
  26. Forced                                   : No
  27. Color range                              : Limited
  28. Color primaries                          : BT.709
  29. Transfer characteristics                 : BT.709
  30. Matrix coefficients                      : BT.709

  31. Audio
  32. ID                                       : 2
  33. Format                                   : AC-3
  34. Format/Info                              : Audio Coding 3
  35. Commercial name                          : Dolby Digital
  36. Codec ID                                 : A_AC3
  37. Duration                                 : 1 h 43 min
  38. Bit rate mode                            : Constant
  39. Bit rate                                 : 384 kb/s
  40. Channel(s)                               : 6 channels
  41. Channel layout                           : L R C LFE Ls Rs
  42. Sampling rate                            : 48.0 kHz
  43. Frame rate                               : 31.250 FPS (1536 SPF)
  44. Bit depth                                : 16 bits
  45. Compression mode                         : Lossy
  46. Stream size                              : 284 MiB (8%)
  47. Title                                    : Spreading.Darkness.2017.1080p.WEB-DL.DD5.1.H264-FGT
  48. Language                                 : English
  49. Service kind                             : Complete Main
  50. Default                                  : Yes
  51. Forced                                   : No

  52. Text
  53. ID                                       : 3
  54. Format                                   : UTF-8
  55. Codec ID                                 : S_TEXT/UTF8
  56. Codec ID/Info                            : UTF-8 Plain Text
  57. Language                                 : English
  58. Default                                  : Yes
  59. Forced                                   : No

  60. Menu
  61. 00:00:00.000                             : en:Chapter 1
  62. 00:17:12.323                             : en:Chapter 2
  63. 00:32:21.023                             : en:Chapter 3
  64. 00:48:58.937                             : en:Chapter 4
  65. 01:05:27.216                             : en:Chapter 5
  66. 01:21:05.404                             : en:Chapter 6
  67. 01:31:31.196                             : en:Chapter 7
  68. 01:39:33.261                             : en:Chapter 8
复制代码

无尽的黑暗/舒展的黑暗 Spreading.Darkness.2017.1080p.WEB-DL.DD5.1.H264-FGT 3.58GB-2.png 无尽的黑暗/舒展的黑暗 Spreading.Darkness.2017.1080p.WEB-DL.DD5.1.H264-FGT 3.58GB-3.png 无尽的黑暗/舒展的黑暗 Spreading.Darkness.2017.1080p.WEB-DL.DD5.1.H264-FGT 3.58GB-4.png 无尽的黑暗/舒展的黑暗 Spreading.Darkness.2017.1080p.WEB-DL.DD5.1.H264-FGT 3.58GB-5.png 无尽的黑暗/舒展的黑暗 Spreading.Darkness.2017.1080p.WEB-DL.DD5.1.H264-FGT 3.58GB-6.png 无尽的黑暗/舒展的黑暗 Spreading.Darkness.2017.1080p.WEB-DL.DD5.1.H264-FGT 3.58GB-7.png






回复

使用道具 举报

懒得打字嘛,点击右侧快捷回复 【右侧内容,后台自定义】
您需要登录后才可以回帖 登录 | 立即加入

本版积分规则

Archiver|小黑屋| 蓝光电影网 |网站地图

Copyright © 2021 Comsenz Inc. Powered by 蓝光电影网

蓝光电影网

本站内容由用户自主分享和转载自互联网,转载目的在于传递更多信息,并不代表本网赞同其观点和对其真实性负责。

如有侵权、违反国家法律政策行为,请联系我们,我们会第一时间及时清除和处理!

举报反馈邮箱:[email protected]

快速回复 返回顶部 返回列表