找回密码

蓝光电影网

查看: 314|回复: 0

[剧情] 贝克斯/贝克 Becks.2017.1080p.WEB-DL.DD5.1.H264-FGT 3.26GB

[复制链接]
蓝光币
886
发表于 2020-1-28 16:57:42 | 显示全部楼层 |阅读模式
贝克斯/贝克 Becks.2017.1080p.WEB-DL.DD5.1.H264-FGT 3.26GB-1.png

译  名 贝克斯 / 贝克
片  名 Becks
年  代 2017
产  地 美国
类  别 剧情 / 恋爱 / 音乐
语  言 英语
上映日期 2017-06-15(洛杉矶电影节) / 2018-02-09(美国)
IMDb评分  6.3/10 from 763 users
IMDb链接  https://www.imdb.com/title/tt6150942
豆瓣评分 6.1/10 from 244 users
豆瓣链接 https://movie.douban.com/subject/27078033/
片  长 90分钟
导  演 Daniel Powell / Elizabeth Rohrbaugh
编  剧 Rebecca Drysdale / Daniel Powell / Elizabeth Rohrbaugh
主  演 Lena Hall
       丹·福勒 Dan Fogler
       迈克尔·泽根 Michael Zegen
       海莉·清子 Hayley Kiyoko
       克里斯汀·拉蒂 Christine Lahti
       米娜·苏瓦丽 Mena Suvari


标  签 音乐 | 美国 | 同性 | 恋爱 | LGBT | 2017 | 女性 | les

简  介  

  和女友分手后,一位布鲁克林的音乐家回到了她住在中西部的妈妈处。她一边在故乡游玩,一边在一个老朋友的酒吧演奏赚点小钱,一段料想之外的关系起头发生。
  1. Video
  2. ID                                       : 1
  3. Format                                   : AVC
  4. Format/Info                              : Advanced Video Codec
  5. Format profile                           : [email protected]
  6. Format settings                          : CABAC / 5 Ref Frames
  7. Format settings, CABAC                   : Yes
  8. Format settings, Reference frames        : 5 frames
  9. Codec ID                                 : V_MPEG4/ISO/AVC
  10. Duration                                 : 1 h 33 min
  11. Bit rate                                 : 4 595 kb/s
  12. Width                                    : 1 912 pixels
  13. Height                                   : 796 pixels
  14. Display aspect ratio                     : 2.40:1
  15. Frame rate mode                          : Constant
  16. Frame rate                               : 23.976 (24000/1001) FPS
  17. Color space                              : YUV
  18. Chroma subsampling                       : 4:2:0
  19. Bit depth                                : 8 bits
  20. Scan type                                : Progressive
  21. Bits/(Pixel*Frame)                       : 0.126
  22. Stream size                              : 3.01 GiB (92%)
  23. Title                                    : Becks.2017.1080p.WEB-DL.DD5.1.H264-FGT
  24. Language                                 : English
  25. Default                                  : Yes
  26. Forced                                   : No
  27. Color range                              : Limited
  28. Color primaries                          : BT.709
  29. Transfer characteristics                 : BT.709
  30. Matrix coefficients                      : BT.709

  31. Audio
  32. ID                                       : 2
  33. Format                                   : AC-3
  34. Format/Info                              : Audio Coding 3
  35. Commercial name                          : Dolby Digital
  36. Codec ID                                 : A_AC3
  37. Duration                                 : 1 h 33 min
  38. Bit rate mode                            : Constant
  39. Bit rate                                 : 384 kb/s
  40. Channel(s)                               : 6 channels
  41. Channel layout                           : L R C LFE Ls Rs
  42. Sampling rate                            : 48.0 kHz
  43. Frame rate                               : 31.250 FPS (1536 SPF)
  44. Bit depth                                : 16 bits
  45. Compression mode                         : Lossy
  46. Stream size                              : 257 MiB (8%)
  47. Title                                    : Becks.2017.1080p.WEB-DL.DD5.1.H264-FGT
  48. Language                                 : English
  49. Service kind                             : Complete Main
  50. Default                                  : Yes
  51. Forced                                   : No

  52. Menu
  53. 00:00:00.000                             : en:1
  54. 00:04:15.000                             : en:2
  55. 00:14:50.000                             : en:3
  56. 00:21:00.000                             : en:4
  57. 00:28:10.000                             : en:5
  58. 00:37:14.000                             : en:6
  59. 00:46:42.000                             : en:7
  60. 00:55:17.000                             : en:8
  61. 01:04:54.000                             : en:9
  62. 01:14:50.000                             : en:10
  63. 01:29:15.000                             : en:11
复制代码

贝克斯/贝克 Becks.2017.1080p.WEB-DL.DD5.1.H264-FGT 3.26GB-1.png 贝克斯/贝克 Becks.2017.1080p.WEB-DL.DD5.1.H264-FGT 3.26GB-3.png 贝克斯/贝克 Becks.2017.1080p.WEB-DL.DD5.1.H264-FGT 3.26GB-2.png 贝克斯/贝克 Becks.2017.1080p.WEB-DL.DD5.1.H264-FGT 3.26GB-5.png 贝克斯/贝克 Becks.2017.1080p.WEB-DL.DD5.1.H264-FGT 3.26GB-3.png 贝克斯/贝克 Becks.2017.1080p.WEB-DL.DD5.1.H264-FGT 3.26GB-7.png






回复

使用道具 举报

懒得打字嘛,点击右侧快捷回复 【右侧内容,后台自定义】
您需要登录后才可以回帖 登录 | 立即加入

本版积分规则

Archiver|小黑屋| 蓝光电影网 |网站地图

Copyright © 2021 Comsenz Inc. Powered by 蓝光电影网

蓝光电影网

本站内容由用户自主分享和转载自互联网,转载目的在于传递更多信息,并不代表本网赞同其观点和对其真实性负责。

如有侵权、违反国家法律政策行为,请联系我们,我们会第一时间及时清除和处理!

举报反馈邮箱:[email protected]

快速回复 返回顶部 返回列表