找回密码

蓝光电影网

查看: 265|回复: 0

[剧情] 埃塞克斯仇杀 Essex.Vendetta.2016.1080p.WEB-DL.DD5.1.H264-FGT 3.40GB

[复制链接]
蓝光币
886
发表于 2020-1-28 17:03:55 | 显示全部楼层 |阅读模式
埃塞克斯仇杀 Essex.Vendetta.2016.1080p.WEB-DL.DD5.1.H264-FGT 3.40GB-1.png

译  名 埃塞克斯仇杀
片  名 Essex Vendetta
年  代 2016
产  地 英国
类  别 剧情
语  言 英语
IMDb评分  2.9/10 from 140 users
IMDb链接  https://www.imdb.com/title/tt3579842
豆瓣评分 0/10 from 0 users
豆瓣链接 https://movie.douban.com/subject/26747024/
片  长 89分钟
导  演 Terry Lee Coker

标  签 笑剧

简  介  

  暂无相关剧情先容
  1. Video
  2. ID                                       : 1
  3. Format                                   : AVC
  4. Format/Info                              : Advanced Video Codec
  5. Format profile                           : [email protected]
  6. Format settings                          : CABAC / 4 Ref Frames
  7. Format settings, CABAC                   : Yes
  8. Format settings, Reference frames        : 4 frames
  9. Codec ID                                 : V_MPEG4/ISO/AVC
  10. Duration                                 : 1 h 29 min
  11. Bit rate                                 : 4 928 kb/s
  12. Width                                    : 1 912 pixels
  13. Height                                   : 1 072 pixels
  14. Display aspect ratio                     : 16:9
  15. Frame rate mode                          : Constant
  16. Frame rate                               : 23.976 FPS
  17. Color space                              : YUV
  18. Chroma subsampling                       : 4:2:0
  19. Bit depth                                : 8 bits
  20. Scan type                                : Progressive
  21. Bits/(Pixel*Frame)                       : 0.100
  22. Stream size                              : 3.09 GiB (91%)
  23. Title                                    : Essex.Vendetta.2016.1080p.WEB-DL.DD5.1.H264-FGT
  24. Language                                 : English
  25. Default                                  : Yes
  26. Forced                                   : No
  27. Color range                              : Limited
  28. Color primaries                          : BT.709
  29. Transfer characteristics                 : BT.709
  30. Matrix coefficients                      : BT.709

  31. Audio
  32. ID                                       : 2
  33. Format                                   : AC-3
  34. Format/Info                              : Audio Coding 3
  35. Commercial name                          : Dolby Digital
  36. Codec ID                                 : A_AC3
  37. Duration                                 : 1 h 29 min
  38. Bit rate mode                            : Constant
  39. Bit rate                                 : 384 kb/s
  40. Channel(s)                               : 6 channels
  41. Channel layout                           : L R C LFE Ls Rs
  42. Sampling rate                            : 48.0 kHz
  43. Frame rate                               : 31.250 FPS (1536 SPF)
  44. Bit depth                                : 16 bits
  45. Compression mode                         : Lossy
  46. Stream size                              : 247 MiB (7%)
  47. Title                                    : Essex.Vendetta.2016.1080p.WEB-DL.DD5.1.H264-FGT
  48. Language                                 : English
  49. Service kind                             : Complete Main
  50. Default                                  : Yes
  51. Forced                                   : No
复制代码

埃塞克斯仇杀 Essex.Vendetta.2016.1080p.WEB-DL.DD5.1.H264-FGT 3.40GB-2.png 埃塞克斯仇杀 Essex.Vendetta.2016.1080p.WEB-DL.DD5.1.H264-FGT 3.40GB-3.png 埃塞克斯仇杀 Essex.Vendetta.2016.1080p.WEB-DL.DD5.1.H264-FGT 3.40GB-4.png 埃塞克斯仇杀 Essex.Vendetta.2016.1080p.WEB-DL.DD5.1.H264-FGT 3.40GB-5.png 埃塞克斯仇杀 Essex.Vendetta.2016.1080p.WEB-DL.DD5.1.H264-FGT 3.40GB-6.png 埃塞克斯仇杀 Essex.Vendetta.2016.1080p.WEB-DL.DD5.1.H264-FGT 3.40GB-7.png






回复

使用道具 举报

懒得打字嘛,点击右侧快捷回复 【右侧内容,后台自定义】
您需要登录后才可以回帖 登录 | 立即加入

本版积分规则

Archiver|小黑屋| 蓝光电影网 |网站地图

Copyright © 2021 Comsenz Inc. Powered by 蓝光电影网

蓝光电影网

本站内容由用户自主分享和转载自互联网,转载目的在于传递更多信息,并不代表本网赞同其观点和对其真实性负责。

如有侵权、违反国家法律政策行为,请联系我们,我们会第一时间及时清除和处理!

举报反馈邮箱:[email protected]

快速回复 返回顶部 返回列表