找回密码

蓝光电影网

查看: 652|回复: 4

[剧情] 恶霸警察 Jo.Pil-ho.The.Dawning.Rage.2019.KOREAN.1080p.BluRay.x264.DTS-FGT 11.56GB

[复制链接]
蓝光币
1022
发表于 2020-1-28 17:07:14 | 显示全部楼层 |阅读模式
恶霸差人 Jo.Pil-ho.The.Dawning.Rage.2019.KOREAN.1080p.BluRay.x264.DTS-FGT 11.56GB-1.png

译  名 恶霸差人 / Bad Police / Jo Pil-ho: The Dawning Rage / 恶质差人
片  名 ????
年  代 2019
产  地 韩国
类  别 剧情 / 犯罪
语  言 韩语
上映日期 2019-03-20(韩国)
IMDb评分  6.2/10 from 815 users
IMDb链接  https://www.imdb.com/title/tt7738048
豆瓣评分 6.7/10 from 2668 users
豆瓣链接 https://movie.douban.com/subject/27087784/
片  长 127分钟
导  演 李桢凡 Jeong-beom Lee
编  剧 李桢凡 Jeong-beom Lee
主  演 李善均 Seon-gyun Lee
       全素妮 Jeon So-nee
       朴海俊 Hea-jun Park
       宋永彰 Young-chang Song
       朴秉恩 Byung-eun Park
       金敏载 Kim Min-jae
       郑家蓝 Ga-ram  Jung
       尹亨国 Hyeong-gook Im


标  签 犯罪 | 韩国 | 行动 | 社会 | 2019 | 剧情 | 小人物 | 人性

简  介  

  为了躲避穷追不舍的外务捕快,败北的员警勉为其难地和叛逆青少女联手,诡计在为时已晚前揭开诡计。
  1. Video
  2. ID                                       : 1
  3. Format                                   : AVC
  4. Format/Info                              : Advanced Video Codec
  5. Format profile                           : [email protected]
  6. Format settings                          : CABAC / 4 Ref Frames
  7. Format settings, CABAC                   : Yes
  8. Format settings, Reference frames        : 4 frames
  9. Codec ID                                 : V_MPEG4/ISO/AVC
  10. Duration                                 : 2 h 7 min
  11. Bit rate                                 : 11.5 Mb/s
  12. Width                                    : 1 920 pixels
  13. Height                                   : 804 pixels
  14. Display aspect ratio                     : 2.40:1
  15. Frame rate mode                          : Constant
  16. Frame rate                               : 23.976 (24000/1001) FPS
  17. Color space                              : YUV
  18. Chroma subsampling                       : 4:2:0
  19. Bit depth                                : 8 bits
  20. Scan type                                : Progressive
  21. Bits/(Pixel*Frame)                       : 0.311
  22. Stream size                              : 10.2 GiB (88%)
  23. Title                                    : Jo.Pil-ho.The.Dawning.Rage.2019.KOREAN.1080p.BluRay.x264.DTS-FGT
  24. Writing library                          : x264 core 148 r2748 97eaef2
  25. Encoding settings                        : cabac=1 / ref=4 / deblock=1:-2:-2 / analyse=0x3:0x113 / me=umh / subme=9 / psy=1 / psy_rd=1.00:0.15 / mixed_ref=1 / me_range=16 / chroma_me=1 / trellis=2 / 8x8dct=1 / cqm=0 / deadzone=21,11 / fast_pskip=1 / chroma_qp_offset=-3 / threads=72 / lookahead_threads=3 / sliced_threads=0 / nr=0 / decimate=1 / interlaced=0 / bluray_compat=0 / constrained_intra=0 / bframes=3 / b_pyramid=2 / b_adapt=1 / b_bias=0 / direct=3 / weightb=1 / open_gop=0 / weightp=2 / keyint=250 / keyint_min=25 / scenecut=40 / intra_refresh=0 / rc_lookahead=50 / rc=2pass / mbtree=1 / bitrate=11500 / ratetol=1.0 / qcomp=0.60 / qpmin=0 / qpmax=69 / qpstep=4 / cplxblur=20.0 / qblur=0.5 / vbv_maxrate=31250 / vbv_bufsize=31250 / nal_hrd=none / filler=0 / ip_ratio=1.40 / aq=1:1.00
  26. Language                                 : Korean
  27. Default                                  : Yes
  28. Forced                                   : No

  29. Audio
  30. ID                                       : 2
  31. Format                                   : DTS
  32. Format/Info                              : Digital Theater Systems
  33. Codec ID                                 : A_DTS
  34. Duration                                 : 2 h 7 min
  35. Bit rate mode                            : Constant
  36. Bit rate                                 : 1 509 kb/s
  37. Channel(s)                               : 6 channels
  38. Channel layout                           : C L R Ls Rs LFE
  39. Sampling rate                            : 48.0 kHz
  40. Frame rate                               : 93.750 FPS (512 SPF)
  41. Bit depth                                : 24 bits
  42. Compression mode                         : Lossy
  43. Stream size                              : 1.34 GiB (12%)
  44. Title                                    : Jo.Pil-ho.The.Dawning.Rage.2019.KOREAN.1080p.BluRay.x264.DTS-FGT
  45. Language                                 : Korean
  46. Default                                  : Yes
  47. Forced                                   : No

  48. Text
  49. ID                                       : 3
  50. Format                                   : UTF-8
  51. Codec ID                                 : S_TEXT/UTF8
  52. Codec ID/Info                            : UTF-8 Plain Text
  53. Duration                                 : 2 h 2 min
  54. Bit rate                                 : 38 b/s
  55. Count of elements                        : 1399
  56. Stream size                              : 34.6 KiB (0%)
  57. Language                                 : English
  58. Default                                  : Yes
  59. Forced                                   : No

  60. Menu
  61. 00:00:00.000                             : ko:Chapter 01
  62. 00:07:01.379                             : ko:Chapter 02
  63. 00:20:06.705                             : ko:Chapter 03
  64. 00:29:28.391                             : ko:Chapter 04
  65. 00:39:08.804                             : ko:Chapter 05
  66. 00:51:37.010                             : ko:Chapter 06
  67. 01:05:09.739                             : ko:Chapter 07
  68. 01:18:09.351                             : ko:Chapter 08
  69. 01:32:48.604                             : ko:Chapter 09
  70. 01:42:07.871                             : ko:Chapter 10
  71. 01:55:39.807                             : ko:Chapter 11
  72. 02:02:53.991                             : ko:Chapter 12
复制代码

恶霸差人 Jo.Pil-ho.The.Dawning.Rage.2019.KOREAN.1080p.BluRay.x264.DTS-FGT 11.56GB-2.png 恶霸差人 Jo.Pil-ho.The.Dawning.Rage.2019.KOREAN.1080p.BluRay.x264.DTS-FGT 11.56GB-3.png 恶霸差人 Jo.Pil-ho.The.Dawning.Rage.2019.KOREAN.1080p.BluRay.x264.DTS-FGT 11.56GB-4.png






回复

使用道具 举报

懒得打字嘛,点击右侧快捷回复 【右侧内容,后台自定义】
您需要登录后才可以回帖 登录 | 立即加入

本版积分规则

Archiver|小黑屋| 蓝光电影网 |网站地图

Copyright © 2021 Comsenz Inc. Powered by 蓝光电影网

蓝光电影网

本站内容由用户自主分享和转载自互联网,转载目的在于传递更多信息,并不代表本网赞同其观点和对其真实性负责。

如有侵权、违反国家法律政策行为,请联系我们,我们会第一时间及时清除和处理!

举报反馈邮箱:[email protected]

快速回复 返回顶部 返回列表