找回密码

蓝光电影网

查看: 483|回复: 0

[奇幻] 等到海伦来 Wait.Till.Helen.Comes.2016.1080p.WEB-DL.DD5.1.H264-FGT 3.05GB

[复制链接]
蓝光币
886
发表于 2020-1-28 17:10:14 | 显示全部楼层 |阅读模式
等到海伦来 Wait.Till.Helen.Comes.2016.1080p.WEB-DL.DD5.1.H264-FGT 3.05GB-1.png

译  名 等到海伦来 / Little Girls Secret
片  名 Wait Till Helen Comes
年  代 2016
产  地 加拿大
类  别 家庭 / 奇异
语  言 英语
上映日期 2016-09-07(MOTELx - 里斯本可骇电影节)
IMDb评分  5.0/10 from 374 users
IMDb链接  https://www.imdb.com/title/tt1821701
豆瓣评分 0/10 from 0 users
豆瓣链接 https://movie.douban.com/subject/26013270/
片  长 87分钟
导  演 Dominic James
编  剧 Victoria Sanchez Mandryk / Mary Downing Hahn
主  演 玛丽亚·贝罗 Maria Bello
       苏菲·奈丽丝 Sophie Nélisse
       伊莎贝尔·内利瑟 Isabelle Nélisse


标  签 加拿大 | 阿飘不甘孤单系列 | 可骇 | horror

简  介  

  When a reconstructed family moves to a converted church in the country, 14-year-old Molly soon realizes that she has a gift and must use it; she has to face her deepest fears, and save her troubled step-sister from a dangerous relationship with the ghost of a lonely little girl.
  1. Video
  2. ID                                       : 1
  3. Format                                   : AVC
  4. Format/Info                              : Advanced Video Codec
  5. Format profile                           : [email protected]
  6. Format settings                          : CABAC / 5 Ref Frames
  7. Format settings, CABAC                   : Yes
  8. Format settings, Reference frames        : 5 frames
  9. Codec ID                                 : V_MPEG4/ISO/AVC
  10. Duration                                 : 1 h 27 min
  11. Bit rate                                 : 4 626 kb/s
  12. Width                                    : 1 920 pixels
  13. Height                                   : 808 pixels
  14. Display aspect ratio                     : 2.40:1
  15. Frame rate mode                          : Constant
  16. Frame rate                               : 23.976 (23976/1000) FPS
  17. Color space                              : YUV
  18. Chroma subsampling                       : 4:2:0
  19. Bit depth                                : 8 bits
  20. Scan type                                : Progressive
  21. Bits/(Pixel*Frame)                       : 0.124
  22. Stream size                              : 2.81 GiB (92%)
  23. Title                                    : Wait.Till.Helen.Comes.2016.1080p.WEB-DL.DD5.1.H.264-FGT
  24. Language                                 : English
  25. Default                                  : Yes
  26. Forced                                   : No
  27. Color range                              : Limited
  28. Color primaries                          : BT.709
  29. Transfer characteristics                 : BT.709
  30. Matrix coefficients                      : BT.709

  31. Audio
  32. ID                                       : 2
  33. Format                                   : AC-3
  34. Format/Info                              : Audio Coding 3
  35. Commercial name                          : Dolby Digital
  36. Codec ID                                 : A_AC3
  37. Duration                                 : 1 h 27 min
  38. Bit rate mode                            : Constant
  39. Bit rate                                 : 384 kb/s
  40. Channel(s)                               : 6 channels
  41. Channel layout                           : L R C LFE Ls Rs
  42. Sampling rate                            : 48.0 kHz
  43. Frame rate                               : 31.250 FPS (1536 SPF)
  44. Bit depth                                : 16 bits
  45. Compression mode                         : Lossy
  46. Stream size                              : 239 MiB (8%)
  47. Title                                    : Wait.Till.Helen.Comes.2016.1080p.WEB-DL.DD5.1.H.264-FGT
  48. Language                                 : English
  49. Service kind                             : Complete Main
  50. Default                                  : Yes
  51. Forced                                   : No

  52. Text
  53. ID                                       : 3
  54. Format                                   : UTF-8
  55. Codec ID                                 : S_TEXT/UTF8
  56. Codec ID/Info                            : UTF-8 Plain Text
  57. Duration                                 : 1 h 20 min
  58. Bit rate                                 : 36 b/s
  59. Count of elements                        : 880
  60. Stream size                              : 21.4 KiB (0%)
  61. Language                                 : English
  62. Default                                  : Yes
  63. Forced                                   : No

  64. Menu
  65. 00:00:00.000                             : en:Opening Sequence
  66. 00:05:11.000                             : en:We're Never Moving Again
  67. 00:10:20.000                             : en:Come Out And Play
  68. 00:16:09.000                             : en:Girl lying in bed
  69. 00:21:14.000                             : en:Come Straight Home
  70. 00:27:19.000                             : en:She Was Just Sleepwalking
  71. 00:31:58.000                             : en:Look But Don't Touch
  72. 00:38:09.000                             : en:Who Is Helen?
  73. 00:43:30.000                             : en:Leave Us Alone
  74. 00:48:55.000                             : en:Before It Burned
  75. 00:54:29.000                             : en:What Happened To Helen?
  76. 00:59:29.000                             : en:I Didn't Do It
  77. 01:04:27.000                             : en:You Can Save Her
  78. 01:09:50.000                             : en:Open The Door!
  79. 01:15:28.000                             : en:It Was An Accident
  80. 01:20:34.000                             : en:End Credits
复制代码

等到海伦来 Wait.Till.Helen.Comes.2016.1080p.WEB-DL.DD5.1.H264-FGT 3.05GB-2.png 等到海伦来 Wait.Till.Helen.Comes.2016.1080p.WEB-DL.DD5.1.H264-FGT 3.05GB-3.png 等到海伦来 Wait.Till.Helen.Comes.2016.1080p.WEB-DL.DD5.1.H264-FGT 3.05GB-1.png






回复

使用道具 举报

懒得打字嘛,点击右侧快捷回复 【右侧内容,后台自定义】
您需要登录后才可以回帖 登录 | 立即加入

本版积分规则

Archiver|小黑屋| 蓝光电影网 |网站地图

Copyright © 2021 Comsenz Inc. Powered by 蓝光电影网

蓝光电影网

本站内容由用户自主分享和转载自互联网,转载目的在于传递更多信息,并不代表本网赞同其观点和对其真实性负责。

如有侵权、违反国家法律政策行为,请联系我们,我们会第一时间及时清除和处理!

举报反馈邮箱:[email protected]

快速回复 返回顶部 返回列表