找回密码

蓝光电影网

查看: 248|回复: 0

[剧情] 红色枫叶 The.Red.Maple.Leaf.2016.1080p.WEB-DL.DD5.1.H264-FGT 4.56GB

[复制链接]
蓝光币
886
发表于 2020-1-28 18:53:07 | 显示全部楼层 |阅读模式
红色枫叶 The.Red.Maple.Leaf.2016.1080p.WEB-DL.DD5.1.H264-FGT 4.56GB-1.png

译  名 红色枫叶
片  名 The Red Maple Leaf
年  代 2016
产  地 美国 / 加拿大 Canada
类  别 剧情 / 悬疑 / 犯罪
语  言 英语
上映日期 2016-09-09(美国)
IMDb评分  5.1/10 from 4430 users
IMDb链接  https://www.imdb.com/title/tt5537140
豆瓣评分 0/10 from 0 users
豆瓣链接 https://movie.douban.com/subject/26797531/
片  长 132分钟
导  演 Frank D'Angelo
编  剧 Frank D'Angelo
主  演 米拉·索维诺 Mira Sorvino
       埃里克·罗伯茨 Eric Roberts
       詹姆斯·凯恩 James Caan
       多莉丝·罗伯茨 Doris Roberts
       马克·布鲁卡斯 Marc Blucas
       克里斯·克里斯托佛森 Kris Kristofferson
       马丁·兰道 Martin Landau
       罗伯特·劳吉亚 Robert Loggia
       玛戈·基德 Margot Kidder
       迈克尔·帕尔 Michael Paré
       阿曼德·阿山特 Armand Assante
       保罗·索维诺 Paul Sorvino
       丹尼尔·鲍德温 Daniel Baldwin
       Addison Holley
       Ellen Dubin


标  签 Sorvino | Mira

简  介  

  On a seemingly worry-free Ottawa morning, young Jenni Adams, daughter of U.S. Ambassador Patrick Adams, is snatched from right under the nose of her Secret Service detail. The blatant act has left the American authorities searching for answers with powerful pressure coming at them from every side. From senators all the way up to the President of the United States, the hunt is on to find this girl alive and return her to her family.
  1. Video
  2. ID                                       : 1
  3. Format                                   : AVC
  4. Format/Info                              : Advanced Video Codec
  5. Format profile                           : [email protected]
  6. Format settings                          : CABAC / 5 Ref Frames
  7. Format settings, CABAC                   : Yes
  8. Format settings, Reference frames        : 5 frames
  9. Codec ID                                 : V_MPEG4/ISO/AVC
  10. Duration                                 : 2 h 12 min
  11. Bit rate                                 : 4 549 kb/s
  12. Width                                    : 1 914 pixels
  13. Height                                   : 806 pixels
  14. Display aspect ratio                     : 2.40:1
  15. Frame rate mode                          : Constant
  16. Frame rate                               : 23.976 (23976/1000) FPS
  17. Color space                              : YUV
  18. Chroma subsampling                       : 4:2:0
  19. Bit depth                                : 8 bits
  20. Scan type                                : Progressive
  21. Bits/(Pixel*Frame)                       : 0.123
  22. Stream size                              : 4.20 GiB (92%)
  23. Title                                    : The.Red.Maple.Leaf.2016.1080p.WEB-DL.DD5.1.H264-FGT
  24. Language                                 : English
  25. Default                                  : Yes
  26. Forced                                   : No
  27. Color range                              : Limited
  28. Color primaries                          : BT.709
  29. Transfer characteristics                 : BT.709
  30. Matrix coefficients                      : BT.709

  31. Audio
  32. ID                                       : 2
  33. Format                                   : AC-3
  34. Format/Info                              : Audio Coding 3
  35. Commercial name                          : Dolby Digital
  36. Codec ID                                 : A_AC3
  37. Duration                                 : 2 h 12 min
  38. Bit rate mode                            : Constant
  39. Bit rate                                 : 384 kb/s
  40. Channel(s)                               : 6 channels
  41. Channel layout                           : L R C LFE Ls Rs
  42. Sampling rate                            : 48.0 kHz
  43. Frame rate                               : 31.250 FPS (1536 SPF)
  44. Bit depth                                : 16 bits
  45. Compression mode                         : Lossy
  46. Stream size                              : 363 MiB (8%)
  47. Title                                    : The.Red.Maple.Leaf.2016.1080p.WEB-DL.DD5.1.H264-FGT
  48. Language                                 : English
  49. Service kind                             : Complete Main
  50. Default                                  : Yes
  51. Forced                                   : No

  52. Text
  53. ID                                       : 3
  54. Format                                   : UTF-8
  55. Codec ID                                 : S_TEXT/UTF8
  56. Codec ID/Info                            : UTF-8 Plain Text
  57. Duration                                 : 2 h 4 min
  58. Bit rate                                 : 69 b/s
  59. Count of elements                        : 2268
  60. Stream size                              : 63.1 KiB (0%)
  61. Language                                 : English
  62. Default                                  : Yes
  63. Forced                                   : No

  64. Menu
  65. 00:00:00.000                             : en:Opening Sequence
  66. 00:12:05.000                             : en:8 A.M
  67. 00:17:09.000                             : en:I'm Just Trying
  68. 00:22:17.000                             : en:How Long?
  69. 00:27:39.000                             : en:We're Close
  70. 00:32:55.000                             : en:What Do You Got?
  71. 00:41:34.000                             : en:You Can Keep This
  72. 00:46:24.000                             : en:How Are You Doing?
  73. 00:50:13.000                             : en:I'm Just Thinkin
  74. 00:59:34.000                             : en:A Little Girl
  75. 01:06:34.000                             : en:Well, You Know..
  76. 01:13:32.000                             : en:Join Me For Lunch
  77. 01:18:46.000                             : en:Good Afternoon
  78. 01:24:50.000                             : en:Can I Help You?
  79. 01:31:44.000                             : en:This Bar Is Special
  80. 01:38:30.000                             : en:You're Breaking My Heart
  81. 01:47:25.000                             : en:Hello Who Is This?
  82. 01:52:32.000                             : en:The Driver
  83. 01:58:16.000                             : en:Is She Alive?
  84. 02:05:31.000                             : en:End Credits
复制代码

红色枫叶 The.Red.Maple.Leaf.2016.1080p.WEB-DL.DD5.1.H264-FGT 4.56GB-2.png 红色枫叶 The.Red.Maple.Leaf.2016.1080p.WEB-DL.DD5.1.H264-FGT 4.56GB-3.png 红色枫叶 The.Red.Maple.Leaf.2016.1080p.WEB-DL.DD5.1.H264-FGT 4.56GB-4.png 红色枫叶 The.Red.Maple.Leaf.2016.1080p.WEB-DL.DD5.1.H264-FGT 4.56GB-5.png 红色枫叶 The.Red.Maple.Leaf.2016.1080p.WEB-DL.DD5.1.H264-FGT 4.56GB-6.png 红色枫叶 The.Red.Maple.Leaf.2016.1080p.WEB-DL.DD5.1.H264-FGT 4.56GB-1.png






回复

使用道具 举报

懒得打字嘛,点击右侧快捷回复 【右侧内容,后台自定义】
您需要登录后才可以回帖 登录 | 立即加入

本版积分规则

Archiver|小黑屋| 蓝光电影网 |网站地图

Copyright © 2021 Comsenz Inc. Powered by 蓝光电影网

蓝光电影网

本站内容由用户自主分享和转载自互联网,转载目的在于传递更多信息,并不代表本网赞同其观点和对其真实性负责。

如有侵权、违反国家法律政策行为,请联系我们,我们会第一时间及时清除和处理!

举报反馈邮箱:[email protected]

快速回复 返回顶部 返回列表