找回密码

蓝光电影网

查看: 180|回复: 0

[剧情] 爱如明镜 The.Looking.Glass.2015.1080p.WEB-DL.DD5.1.H264-FGT 4.06GB

[复制链接]
蓝光币
1020
发表于 2020-1-28 18:54:57 | 显示全部楼层 |阅读模式
爱如明镜 The.Looking.Glass.2015.1080p.WEB-DL.DD5.1.H264-FGT 4.06GB-1.png

译  名 爱如明镜 / Swan Song
片  名 The Looking Glass
年  代 2015
产  地 美国
类  别 剧情 / 音乐
语  言 英语
IMDb评分  5.9/10 from 159 users
IMDb链接  https://www.imdb.com/title/tt2912776
豆瓣评分 0/10 from 0 users
豆瓣链接 https://movie.douban.com/subject/27036369/
片  长 110分钟
导  演 John D. Hancock
编  剧 Dorothy Tristan
主  演 Dorothy Tristan
       Grace Tarnow
       Elizabeth Stenholt


标  签 待开辟电源 | 春季到了 | 2015

简  介  

  十三岁的朱莉落空了母亲,她必必要去印第安纳和她的祖母凯伦住在一路。凯伦曾是舞台上的明星,在她阿兹海默症还未完全爆发时,她想把一切晓得的一切都教给孙女,这一切的一切会成功么?
  1. Video
  2. ID                                       : 1
  3. Format                                   : AVC
  4. Format/Info                              : Advanced Video Codec
  5. Format profile                           : [email protected]
  6. Format settings                          : CABAC / 4 Ref Frames
  7. Format settings, CABAC                   : Yes
  8. Format settings, Reference frames        : 4 frames
  9. Codec ID                                 : V_MPEG4/ISO/AVC
  10. Duration                                 : 1 h 46 min
  11. Bit rate                                 : 5 069 kb/s
  12. Width                                    : 1 908 pixels
  13. Height                                   : 1 068 pixels
  14. Display aspect ratio                     : 16:9
  15. Frame rate mode                          : Constant
  16. Frame rate                               : 23.976 (24000/1001) FPS
  17. Color space                              : YUV
  18. Chroma subsampling                       : 4:2:0
  19. Bit depth                                : 8 bits
  20. Scan type                                : Progressive
  21. Bits/(Pixel*Frame)                       : 0.104
  22. Stream size                              : 3.77 GiB (93%)
  23. Title                                    : The.Looking.Glass.2015.1080p.WEB-DL.DD5.1.H264-FGT
  24. Language                                 : English
  25. Default                                  : Yes
  26. Forced                                   : No
  27. Color range                              : Limited
  28. Color primaries                          : BT.709
  29. Transfer characteristics                 : BT.709
  30. Matrix coefficients                      : BT.709

  31. Audio
  32. ID                                       : 2
  33. Format                                   : AC-3
  34. Format/Info                              : Audio Coding 3
  35. Commercial name                          : Dolby Digital
  36. Codec ID                                 : A_AC3
  37. Duration                                 : 1 h 46 min
  38. Bit rate mode                            : Constant
  39. Bit rate                                 : 384 kb/s
  40. Channel(s)                               : 6 channels
  41. Channel layout                           : L R C LFE Ls Rs
  42. Sampling rate                            : 48.0 kHz
  43. Frame rate                               : 31.250 FPS (1536 SPF)
  44. Bit depth                                : 16 bits
  45. Compression mode                         : Lossy
  46. Stream size                              : 293 MiB (7%)
  47. Title                                    : The.Looking.Glass.2015.1080p.WEB-DL.DD5.1.H264-FGT
  48. Language                                 : English
  49. Service kind                             : Complete Main
  50. Default                                  : Yes
  51. Forced                                   : No

  52. Text
  53. ID                                       : 3
  54. Format                                   : UTF-8
  55. Codec ID                                 : S_TEXT/UTF8
  56. Codec ID/Info                            : UTF-8 Plain Text
  57. Duration                                 : 1 h 46 min
  58. Bit rate                                 : 44 b/s
  59. Count of elements                        : 1650
  60. Stream size                              : 34.5 KiB (0%)
  61. Language                                 : English
  62. Default                                  : Yes
  63. Forced                                   : No

  64. Menu
  65. 00:00:00.000                             : en:1
  66. 00:10:27.000                             : en:2
  67. 00:21:08.000                             : en:3
  68. 00:31:20.000                             : en:4
  69. 00:41:17.000                             : en:5
  70. 00:51:16.000                             : en:6
  71. 01:01:26.000                             : en:7
  72. 01:11:54.000                             : en:8
  73. 01:21:58.000                             : en:9
  74. 01:35:37.000                             : en:10
  75. 01:41:02.000                             : en:11
复制代码

爱如明镜 The.Looking.Glass.2015.1080p.WEB-DL.DD5.1.H264-FGT 4.06GB-2.png 爱如明镜 The.Looking.Glass.2015.1080p.WEB-DL.DD5.1.H264-FGT 4.06GB-3.png 爱如明镜 The.Looking.Glass.2015.1080p.WEB-DL.DD5.1.H264-FGT 4.06GB-4.png 爱如明镜 The.Looking.Glass.2015.1080p.WEB-DL.DD5.1.H264-FGT 4.06GB-5.png 爱如明镜 The.Looking.Glass.2015.1080p.WEB-DL.DD5.1.H264-FGT 4.06GB-6.png 爱如明镜 The.Looking.Glass.2015.1080p.WEB-DL.DD5.1.H264-FGT 4.06GB-7.png






回复

使用道具 举报

懒得打字嘛,点击右侧快捷回复 【右侧内容,后台自定义】
您需要登录后才可以回帖 登录 | 立即加入

本版积分规则

Archiver|小黑屋| 蓝光电影网 |网站地图

Copyright © 2021 Comsenz Inc. Powered by 蓝光电影网

蓝光电影网

本站内容由用户自主分享和转载自互联网,转载目的在于传递更多信息,并不代表本网赞同其观点和对其真实性负责。

如有侵权、违反国家法律政策行为,请联系我们,我们会第一时间及时清除和处理!

举报反馈邮箱:[email protected]

快速回复 返回顶部 返回列表