找回密码

蓝光电影网

查看: 278|回复: 0

[动作] 柯雷兄弟:越过死亡线 The.Krays.Dead.Man.Walking.2018.1080p.WEB-DL.DD5.1.H264-FGT 2.77GB

[复制链接]
蓝光币
1020
发表于 2020-1-28 18:56:09 | 显示全部楼层 |阅读模式
柯雷兄弟:超出灭亡线 The.Krays.Dead.Man.Walking.2018.1080p.WEB-DL.DD5.1.H264-FGT 2.77GB-1.png

译  名 柯雷兄弟:超出灭亡线
片  名 The Krays: Dead Man Walking
年  代 2018
产  地 英国
类  别 行动 / 犯罪
语  言 英语
上映日期 2018-09-10(英国)
IMDb评分  2.6/10 from 172 users
IMDb链接  https://www.imdb.com/title/tt7858466
豆瓣评分 0/10 from 0 users
豆瓣链接 https://movie.douban.com/subject/30323345/
片  长 79分钟
导  演 Richard John Taylor
编  剧 Richard John Taylor
主  演 盖伊·亨利 Guy Henry
       Rita Simons
       Josh Myers
       Christopher Ellison
       Nicholas Ball
       Janine Nerissa
       Leslie Grantham
       马克·皮克林 Marc Pickering
       Nathanjohn Carter
       Triana Terry
       Charlie Woodward


简  介  

  Inspired by true events, the shocking story of London's most feared and notorious brothers Reggie and Ronnie Kray as they break Frank 'The Mad Axeman' Mitchell from Dartmoor Prison in December 1966.
  1. Video
  2. ID                                       : 1
  3. Format                                   : AVC
  4. Format/Info                              : Advanced Video Codec
  5. Format profile                           : [email protected]
  6. Format settings                          : CABAC / 5 Ref Frames
  7. Format settings, CABAC                   : Yes
  8. Format settings, Reference frames        : 5 frames
  9. Codec ID                                 : V_MPEG4/ISO/AVC
  10. Duration                                 : 1 h 19 min
  11. Bit rate                                 : 4 622 kb/s
  12. Width                                    : 1 904 pixels
  13. Height                                   : 752 pixels
  14. Display aspect ratio                     : 2.532
  15. Frame rate mode                          : Constant
  16. Frame rate                               : 25.000 FPS
  17. Color space                              : YUV
  18. Chroma subsampling                       : 4:2:0
  19. Bit depth                                : 8 bits
  20. Scan type                                : Progressive
  21. Bits/(Pixel*Frame)                       : 0.129
  22. Stream size                              : 2.56 GiB (92%)
  23. Title                                    : The.Krays.Dead.Man.Walking.2018.1080p.WEB-DL.DD5.1.H264-FGT
  24. Language                                 : English
  25. Default                                  : Yes
  26. Forced                                   : No
  27. Color range                              : Limited
  28. Color primaries                          : BT.709
  29. Transfer characteristics                 : BT.709
  30. Matrix coefficients                      : BT.709

  31. Audio
  32. ID                                       : 2
  33. Format                                   : AC-3
  34. Format/Info                              : Audio Coding 3
  35. Commercial name                          : Dolby Digital
  36. Codec ID                                 : A_AC3
  37. Duration                                 : 1 h 19 min
  38. Bit rate mode                            : Constant
  39. Bit rate                                 : 384 kb/s
  40. Channel(s)                               : 6 channels
  41. Channel layout                           : L R C LFE Ls Rs
  42. Sampling rate                            : 48.0 kHz
  43. Frame rate                               : 31.250 FPS (1536 SPF)
  44. Bit depth                                : 16 bits
  45. Compression mode                         : Lossy
  46. Stream size                              : 218 MiB (8%)
  47. Title                                    : The.Krays.Dead.Man.Walking.2018.1080p.WEB-DL.DD5.1.H264-FGT
  48. Language                                 : English
  49. Service kind                             : Complete Main
  50. Default                                  : Yes
  51. Forced                                   : No

  52. Menu
  53. 00:00:00.000                             : en:Chapter 1
  54. 00:07:28.000                             : en:Chapter 2
  55. 00:18:29.000                             : en:Chapter 3
  56. 00:30:12.000                             : en:Chapter 4
  57. 00:42:46.000                             : en:Chapter 5
  58. 00:54:35.000                             : en:Chapter 6
  59. 01:06:36.000                             : en:Chapter 7
  60. 01:14:44.000                             : en:Chapter 8
复制代码

柯雷兄弟:超出灭亡线 The.Krays.Dead.Man.Walking.2018.1080p.WEB-DL.DD5.1.H264-FGT 2.77GB-2.png 柯雷兄弟:超出灭亡线 The.Krays.Dead.Man.Walking.2018.1080p.WEB-DL.DD5.1.H264-FGT 2.77GB-3.png 柯雷兄弟:超出灭亡线 The.Krays.Dead.Man.Walking.2018.1080p.WEB-DL.DD5.1.H264-FGT 2.77GB-4.png






回复

使用道具 举报

懒得打字嘛,点击右侧快捷回复 【右侧内容,后台自定义】
您需要登录后才可以回帖 登录 | 立即加入

本版积分规则

Archiver|小黑屋| 蓝光电影网 |网站地图

Copyright © 2021 Comsenz Inc. Powered by 蓝光电影网

蓝光电影网

本站内容由用户自主分享和转载自互联网,转载目的在于传递更多信息,并不代表本网赞同其观点和对其真实性负责。

如有侵权、违反国家法律政策行为,请联系我们,我们会第一时间及时清除和处理!

举报反馈邮箱:[email protected]

快速回复 返回顶部 返回列表