找回密码

蓝光电影网

查看: 238|回复: 0

[喜剧] 所罗门兄弟/真爱无限 The.Brothers.Solomon.2007.1080p.WEB-DL.DD5.1.H264-FGT 3.61GB

[复制链接]
蓝光币
886
发表于 2020-1-28 18:57:41 | 显示全部楼层 |阅读模式
所罗门兄弟/真爱无穷 The.Brothers.Solomon.2007.1080p.WEB-DL.DD5.1.H264-FGT 3.61GB-1.png

译  名 所罗门兄弟 / 真爱无穷
片  名 The Brothers Solomon
年  代 2007
产  地 美国
类  别 笑剧
语  言 英语
上映日期 2007-09-07
IMDb评分  5.3/10 from 10315 users
IMDb链接  https://www.imdb.com/title/tt0784972
豆瓣评分 5.9/10 from 304 users
豆瓣链接 https://movie.douban.com/subject/2043994/
片  长 93 分钟
导  演 Bob Odenkirk
编  剧 Will Forte
主  演 威尔·福特 Will Forte
       威尔·阿奈特 Will Arnett
       克里斯汀·韦格 Kristen Wiig
       齐·麦克布赖德 Chi McBride
       玛琳·阿克曼 Malin Akerman
       李·迈杰斯 Lee Majors


标  签 笑剧 | 美国 | 美国电影 | 2007 | Comedy | 美剧 | 我看过的英语电影 | 我看过的电影

简  介  

  约翰?所罗门(威尔?阿奈特 Will Arnett 饰)和迪恩?所罗门(威尔?福特 Will Forte 饰)兄弟俩的履历与他人大不不异,昔时单身父亲为了满足两个孩子的愿望,带着他们赶赴北极生活,兄弟俩在父亲的教育下对天下有着和凡人分歧的印象,在和女性的打仗中他们也因欠亨变乱频频失利。此日,父亲因病堕入深层昏迷,兄弟俩想用让父亲抱孙子的欣喜使他醒转,为了尽快生个孩子,他们为了获得孩子招式尽出,约会、搭赸、领养等无所不用,约翰对邻人美男塔拉一见钟情,但后者除了愿意照顾他们父亲之外对约翰毫无爱好。兄弟俩想到野生受精找个代孕母亲,经过收集找到了女青年珍妮,但是此次代孕风浪迭起,兄弟俩的友谊也蒙受了应战……
  1. Video
  2. ID                                       : 1
  3. Format                                   : AVC
  4. Format/Info                              : Advanced Video Codec
  5. Format profile                           : [email protected]
  6. Format settings                          : CABAC / 4 Ref Frames
  7. Format settings, CABAC                   : Yes
  8. Format settings, Reference frames        : 4 frames
  9. Codec ID                                 : V_MPEG4/ISO/AVC
  10. Duration                                 : 1 h 32 min
  11. Bit rate                                 : 5 062 kb/s
  12. Width                                    : 1 916 pixels
  13. Height                                   : 1 076 pixels
  14. Display aspect ratio                     : 16:9
  15. Frame rate mode                          : Constant
  16. Frame rate                               : 23.976 (24000/1001) FPS
  17. Color space                              : YUV
  18. Chroma subsampling                       : 4:2:0
  19. Bit depth                                : 8 bits
  20. Scan type                                : Progressive
  21. Bits/(Pixel*Frame)                       : 0.102
  22. Stream size                              : 3.29 GiB (91%)
  23. Title                                    : The.Brothers.Solomon.2007.1080p.WEB-DL.DD5.1.H264-FGT
  24. Language                                 : English
  25. Default                                  : Yes
  26. Forced                                   : No
  27. Color range                              : Limited
  28. Color primaries                          : BT.709
  29. Transfer characteristics                 : BT.709
  30. Matrix coefficients                      : BT.709

  31. Audio
  32. ID                                       : 2
  33. Format                                   : AC-3
  34. Format/Info                              : Audio Coding 3
  35. Commercial name                          : Dolby Digital
  36. Codec ID                                 : A_AC3
  37. Duration                                 : 1 h 32 min
  38. Bit rate mode                            : Constant
  39. Bit rate                                 : 384 kb/s
  40. Channel(s)                               : 6 channels
  41. Channel layout                           : L R C LFE Ls Rs
  42. Sampling rate                            : 48.0 kHz
  43. Frame rate                               : 31.250 FPS (1536 SPF)
  44. Bit depth                                : 16 bits
  45. Compression mode                         : Lossy
  46. Stream size                              : 255 MiB (7%)
  47. Title                                    : The.Brothers.Solomon.2007.1080p.WEB-DL.DD5.1.H264-FGT
  48. Language                                 : English
  49. Service kind                             : Complete Main
  50. Default                                  : Yes
  51. Forced                                   : No

  52. Menu
  53. 00:00:00.000                             : en:Ideal Mate
  54. 00:04:48.000                             : en:Store Jail
  55. 00:07:10.000                             : en:Military Time
  56. 00:09:38.000                             : en:Dad in a Coma
  57. 00:13:08.000                             : en:Dressing Up
  58. 00:16:18.000                             : en:Hit by a Bus
  59. 00:18:21.000                             : en:"Tomorrow"
  60. 00:21:54.000                             : en:Hallway Dinner
  61. 00:26:16.000                             : en:Craigslist
  62. 00:28:07.000                             : en:Seller's Market
  63. 00:30:15.000                             : en:Multiple Shots
  64. 00:35:26.000                             : en:Bank Tank
  65. 00:37:16.000                             : en:Crossover
  66. 00:39:55.000                             : en:So Quiet
  67. 00:43:46.000                             : en:Wet Dream
  68. 00:47:46.000                             : en:First Trimester
  69. 00:50:12.000                             : en:Mug Shots
  70. 00:52:18.000                             : en:Second Trimester
  71. 00:56:25.000                             : en:Third Trimester
  72. 01:00:21.000                             : en:Getting Attached
  73. 01:02:57.000                             : en:Finding Janine
  74. 01:06:42.000                             : en:Break Up
  75. 01:08:48.000                             : en:Keeping Focused
  76. 01:12:25.000                             : en:Confronting Tara
  77. 01:14:52.000                             : en:Sky Banner
  78. 01:19:52.000                             : en:One New Message
  79. 01:22:19.000                             : en:Having a Baby
  80. 01:24:46.000                             : en:Baby-Proofing
复制代码

所罗门兄弟/真爱无穷 The.Brothers.Solomon.2007.1080p.WEB-DL.DD5.1.H264-FGT 3.61GB-2.png 所罗门兄弟/真爱无穷 The.Brothers.Solomon.2007.1080p.WEB-DL.DD5.1.H264-FGT 3.61GB-3.png 所罗门兄弟/真爱无穷 The.Brothers.Solomon.2007.1080p.WEB-DL.DD5.1.H264-FGT 3.61GB-4.png 所罗门兄弟/真爱无穷 The.Brothers.Solomon.2007.1080p.WEB-DL.DD5.1.H264-FGT 3.61GB-5.png 所罗门兄弟/真爱无穷 The.Brothers.Solomon.2007.1080p.WEB-DL.DD5.1.H264-FGT 3.61GB-6.png 所罗门兄弟/真爱无穷 The.Brothers.Solomon.2007.1080p.WEB-DL.DD5.1.H264-FGT 3.61GB-7.png






回复

使用道具 举报

懒得打字嘛,点击右侧快捷回复 【右侧内容,后台自定义】
您需要登录后才可以回帖 登录 | 立即加入

本版积分规则

Archiver|小黑屋| 蓝光电影网 |网站地图

Copyright © 2021 Comsenz Inc. Powered by 蓝光电影网

蓝光电影网

本站内容由用户自主分享和转载自互联网,转载目的在于传递更多信息,并不代表本网赞同其观点和对其真实性负责。

如有侵权、违反国家法律政策行为,请联系我们,我们会第一时间及时清除和处理!

举报反馈邮箱:[email protected]

快速回复 返回顶部 返回列表