找回密码

蓝光电影网

查看: 1431|回复: 3

[剧情] 天堂日落 Sunrise.In.Heaven.2019.1080p.WEB-DL.DD5.1.H264-FGT 3.34GB

[复制链接]
蓝光币
886
发表于 2020-1-28 19:01:48 | 显示全部楼层 |阅读模式
天堂日落 Sunrise.In.Heaven.2019.1080p.WEB-DL.DD5.1.H264-FGT 3.34GB-1.png

译  名 天堂日落 / His Sunrise My Sunset / Sunrise in Heaven
片  名 Sunrise in Heaven
年  代 2019
产  地 美国
类  别 剧情 / 恋爱
语  言 英语
上映日期 2019-04-09(美国)
IMDb评分  6.6/10 from 935 users
IMDb链接  https://www.imdb.com/title/tt8801584
豆瓣评分 6.1/10 from 119 users
豆瓣链接 https://movie.douban.com/subject/33403748/
片  长 85分钟
导  演 Waymon Boone
编  剧 Dan Benamor / Jan Hurst
主  演 柯宾·伯恩森 Corbin Bernsen
       Caylee Cowan
       迪·沃伦斯 Dee Wallace
       Travis Burns
       Jenn Gotzon Chandler
       Erin Bethea
       Randy Crowder
       Aitana Rinab
       康纳·麦克雷斯 Connor McRaith
       Dureyshevar
       Jacob Kyle Young


标  签 恋爱 | 美国 | 美国电影 | 2019 | 人生 | 剧情 | 动人 | 迪·沃伦斯

简  介  

  A true love story that spans a lifetime but eventually results in a painful loss of love. Jan is the daughter of an overly protective militant father, but that doesn't stop her from falling love with Steve, a young GI in the Air Force.
  1. Video
  2. ID                                       : 1
  3. Format                                   : AVC
  4. Format/Info                              : Advanced Video Codec
  5. Format profile                           : [email protected]
  6. Format settings                          : CABAC / 4 Ref Frames
  7. Format settings, CABAC                   : Yes
  8. Format settings, Reference frames        : 4 frames
  9. Codec ID                                 : V_MPEG4/ISO/AVC
  10. Duration                                 : 1 h 25 min
  11. Bit rate                                 : 5 201 kb/s
  12. Width                                    : 1 912 pixels
  13. Height                                   : 1 072 pixels
  14. Display aspect ratio                     : 16:9
  15. Frame rate mode                          : Constant
  16. Frame rate                               : 23.976 (23976/1000) FPS
  17. Color space                              : YUV
  18. Chroma subsampling                       : 4:2:0
  19. Bit depth                                : 8 bits
  20. Scan type                                : Progressive
  21. Bits/(Pixel*Frame)                       : 0.106
  22. Stream size                              : 3.11 GiB (93%)
  23. Title                                    : Sunrise.In.Heaven.2019.1080p.WEB-DL.DD5.1.H264-FGT
  24. Language                                 : English
  25. Default                                  : Yes
  26. Forced                                   : No
  27. Color range                              : Limited
  28. Color primaries                          : BT.709
  29. Transfer characteristics                 : BT.709
  30. Matrix coefficients                      : BT.709

  31. Audio
  32. ID                                       : 2
  33. Format                                   : AC-3
  34. Format/Info                              : Audio Coding 3
  35. Commercial name                          : Dolby Digital
  36. Codec ID                                 : A_AC3
  37. Duration                                 : 1 h 25 min
  38. Bit rate mode                            : Constant
  39. Bit rate                                 : 384 kb/s
  40. Channel(s)                               : 6 channels
  41. Channel layout                           : L R C LFE Ls Rs
  42. Sampling rate                            : 48.0 kHz
  43. Frame rate                               : 31.250 FPS (1536 SPF)
  44. Bit depth                                : 16 bits
  45. Compression mode                         : Lossy
  46. Stream size                              : 235 MiB (7%)
  47. Title                                    : Sunrise.In.Heaven.2019.1080p.WEB-DL.DD5.1.H264-FGT
  48. Language                                 : English
  49. Service kind                             : Complete Main
  50. Default                                  : Yes
  51. Forced                                   : No

  52. Text
  53. ID                                       : 3
  54. Format                                   : UTF-8
  55. Codec ID                                 : S_TEXT/UTF8
  56. Codec ID/Info                            : UTF-8 Plain Text
  57. Duration                                 : 1 h 23 min
  58. Bit rate                                 : 83 b/s
  59. Count of elements                        : 1431
  60. Stream size                              : 50.8 KiB (0%)
  61. Language                                 : English
  62. Default                                  : Yes
  63. Forced                                   : No

  64. Menu
  65. 00:00:00.000                             : en:1
  66. 00:07:39.751                             : en:2
  67. 00:17:29.257                             : en:3
  68. 00:26:37.012                             : en:4
  69. 00:37:23.198                             : en:5
  70. 00:47:34.601                             : en:6
  71. 00:56:53.200                             : en:7
  72. 01:04:59.727                             : en:8
  73. 01:16:37.424                             : en:9
  74. 01:23:24.456                             : en:10
复制代码

天堂日落 Sunrise.In.Heaven.2019.1080p.WEB-DL.DD5.1.H264-FGT 3.34GB-2.png 天堂日落 Sunrise.In.Heaven.2019.1080p.WEB-DL.DD5.1.H264-FGT 3.34GB-3.png 天堂日落 Sunrise.In.Heaven.2019.1080p.WEB-DL.DD5.1.H264-FGT 3.34GB-4.png






回复

使用道具 举报

蓝光币
172
发表于 2021-10-7 20:38:39 | 显示全部楼层

我看不错噢 谢谢楼主!蓝光电影网越来越好!
回复 支持 反对

使用道具 举报

懒得打字嘛,点击右侧快捷回复 【右侧内容,后台自定义】
您需要登录后才可以回帖 登录 | 立即加入

本版积分规则

Archiver|小黑屋| 蓝光电影网 |网站地图

Copyright © 2021 Comsenz Inc. Powered by 蓝光电影网

蓝光电影网

本站内容由用户自主分享和转载自互联网,转载目的在于传递更多信息,并不代表本网赞同其观点和对其真实性负责。

如有侵权、违反国家法律政策行为,请联系我们,我们会第一时间及时清除和处理!

举报反馈邮箱:[email protected]

快速回复 返回顶部 返回列表