找回密码

蓝光电影网

查看: 340|回复: 1

[纪录] 雪橇犬 Sled.Dogs.2016.1080p.WEB-DL.DD5.1.H264-EYEZ 3.17GB

[复制链接]
蓝光币
1020
发表于 2020-1-28 19:03:05 | 显示全部楼层 |阅读模式
雪橇犬 Sled.Dogs.2016.1080p.WEB-DL.DD5.1.H264-EYEZ 3.17GB-1.png

译  名 雪橇犬
片  名 Sled Dogs
年  代 2016
产  地 加拿大
类  别 记载片
语  言 英语
上映日期 2016-12-03(惠斯勒电影节)
IMDb评分  6.1/10 from 146 users
IMDb链接  https://www.imdb.com/title/tt5086046
豆瓣评分 0/10 from 0 users
豆瓣链接 https://movie.douban.com/subject/27185488/
片  长 82分钟
导  演 Fern Levitt
编  剧 迈克尔·阿尔考克 Michael Allcock

标  签 记载片 | 紀錄片

简  介  

  Filmmaker Fern Levitt examines the breeding and care of dogs raised specifically for sled dog racing.
  1. Video
  2. ID                                       : 1
  3. Format                                   : AVC
  4. Format/Info                              : Advanced Video Codec
  5. Format profile                           : [email protected]
  6. Format settings                          : CABAC / 4 Ref Frames
  7. Format settings, CABAC                   : Yes
  8. Format settings, Reference frames        : 4 frames
  9. Codec ID                                 : V_MPEG4/ISO/AVC
  10. Duration                                 : 1 h 22 min
  11. Bit rate                                 : 5 136 kb/s
  12. Width                                    : 1 920 pixels
  13. Height                                   : 1 080 pixels
  14. Display aspect ratio                     : 16:9
  15. Frame rate mode                          : Constant
  16. Frame rate                               : 23.976 FPS
  17. Color space                              : YUV
  18. Chroma subsampling                       : 4:2:0
  19. Bit depth                                : 8 bits
  20. Scan type                                : Progressive
  21. Bits/(Pixel*Frame)                       : 0.103
  22. Stream size                              : 2.95 GiB (93%)
  23. Language                                 : English
  24. Default                                  : Yes
  25. Forced                                   : No
  26. Color range                              : Limited
  27. Color primaries                          : BT.709
  28. Transfer characteristics                 : BT.709
  29. Matrix coefficients                      : BT.709

  30. Audio
  31. ID                                       : 2
  32. Format                                   : AC-3
  33. Format/Info                              : Audio Coding 3
  34. Commercial name                          : Dolby Digital
  35. Codec ID                                 : A_AC3
  36. Duration                                 : 1 h 22 min
  37. Bit rate mode                            : Constant
  38. Bit rate                                 : 384 kb/s
  39. Channel(s)                               : 6 channels
  40. Channel layout                           : L R C LFE Ls Rs
  41. Sampling rate                            : 48.0 kHz
  42. Frame rate                               : 31.250 FPS (1536 SPF)
  43. Bit depth                                : 16 bits
  44. Compression mode                         : Lossy
  45. Stream size                              : 226 MiB (7%)
  46. Language                                 : English
  47. Service kind                             : Complete Main
  48. Default                                  : Yes
  49. Forced                                   : No

  50. Text
  51. ID                                       : 3
  52. Format                                   : UTF-8
  53. Codec ID                                 : S_TEXT/UTF8
  54. Codec ID/Info                            : UTF-8 Plain Text
  55. Duration                                 : 1 h 18 min
  56. Bit rate                                 : 99 b/s
  57. Count of elements                        : 1092
  58. Stream size                              : 57.7 KiB (0%)
  59. Language                                 : English
  60. Default                                  : No
  61. Forced                                   : No

  62. Menu
  63. 00:00:00.000                             : en:01
  64. 00:08:32.000                             : en:02
  65. 00:15:54.000                             : en:03
  66. 00:21:00.000                             : en:04
  67. 00:27:26.000                             : en:05
  68. 00:34:48.000                             : en:06
  69. 00:41:01.000                             : en:07
  70. 00:49:32.000                             : en:08
  71. 00:56:48.000                             : en:09
  72. 01:04:24.000                             : en:10
  73. 01:12:08.000                             : en:11
  74. 01:20:58.000                             : en:12
复制代码

雪橇犬 Sled.Dogs.2016.1080p.WEB-DL.DD5.1.H264-EYEZ 3.17GB-2.png 雪橇犬 Sled.Dogs.2016.1080p.WEB-DL.DD5.1.H264-EYEZ 3.17GB-3.png 雪橇犬 Sled.Dogs.2016.1080p.WEB-DL.DD5.1.H264-EYEZ 3.17GB-4.png






回复

使用道具 举报

懒得打字嘛,点击右侧快捷回复 【右侧内容,后台自定义】
您需要登录后才可以回帖 登录 | 立即加入

本版积分规则

Archiver|小黑屋| 蓝光电影网 |网站地图

Copyright © 2021 Comsenz Inc. Powered by 蓝光电影网

蓝光电影网

本站内容由用户自主分享和转载自互联网,转载目的在于传递更多信息,并不代表本网赞同其观点和对其真实性负责。

如有侵权、违反国家法律政策行为,请联系我们,我们会第一时间及时清除和处理!

举报反馈邮箱:[email protected]

快速回复 返回顶部 返回列表