找回密码

蓝光电影网

查看: 273|回复: 0

[恐怖] 领域 Realms.2017.1080p.WEB-DL.DD5.1.H264-FGT 3.14GB

[复制链接]
蓝光币
886
发表于 2020-1-28 19:05:43 | 显示全部楼层 |阅读模式
范畴 Realms.2017.1080p.WEB-DL.DD5.1.H264-FGT 3.14GB-1.png

译  名 范畴
片  名 Realms
年  代 2018
产  地 美国
类  别 可骇
语  言 英语
上映日期 2018-09-08(泰国 (limited release))
IMDb评分  3.8/10 from 719 users
IMDb链接  https://www.imdb.com/title/tt1934452
豆瓣评分 0/10 from 0 users
豆瓣链接 https://movie.douban.com/subject/30330125/
片  长 90分钟
导  演 达里克·盖茨 Daric Gates
编  剧 Kevin Summerfield
主  演 瑞恩·凯利 Ryan Kelley
       麦迪逊·麦金利 Madison McKinley
       披查亚·尼迪裴善官 Pitchaya Nitipaisankul
       Poo Priya Suandokemai
       Air Phantila


标  签 美国电影 | 2018 | 美国 | 泰国 | 可骇 | 青春 | 行动 | 人性

简  介  

  Supernatural/Horror set against the backdrop of Bangkok, Thailand. After a high-speed police chase leads to an unexpected crash, two American bank robbers and their three local hostages take shelter in a mysterious manor in the woods. As the criminals plot their next move and the hostages try to escape, they begin to realize no one is safe from the evil lurking inside the house.
  1. Video
  2. ID                                       : 1
  3. Format                                   : AVC
  4. Format/Info                              : Advanced Video Codec
  5. Format profile                           : [email protected]
  6. Format settings                          : CABAC / 5 Ref Frames
  7. Format settings, CABAC                   : Yes
  8. Format settings, Reference frames        : 5 frames
  9. Codec ID                                 : V_MPEG4/ISO/AVC
  10. Duration                                 : 1 h 30 min
  11. Bit rate                                 : 4 576 kb/s
  12. Width                                    : 1 920 pixels
  13. Height                                   : 818 pixels
  14. Display aspect ratio                     : 2.35:1
  15. Frame rate mode                          : Constant
  16. Frame rate                               : 23.976 (23976/1000) FPS
  17. Color space                              : YUV
  18. Chroma subsampling                       : 4:2:0
  19. Bit depth                                : 8 bits
  20. Scan type                                : Progressive
  21. Bits/(Pixel*Frame)                       : 0.122
  22. Stream size                              : 2.89 GiB (92%)
  23. Title                                    : Realms.2017.1080p.WEB-DL.DD5.1.H.264-FGT
  24. Language                                 : English
  25. Default                                  : Yes
  26. Forced                                   : No
  27. Color range                              : Limited
  28. Color primaries                          : BT.709
  29. Transfer characteristics                 : BT.709
  30. Matrix coefficients                      : BT.709

  31. Audio
  32. ID                                       : 2
  33. Format                                   : AC-3
  34. Format/Info                              : Audio Coding 3
  35. Commercial name                          : Dolby Digital
  36. Codec ID                                 : A_AC3
  37. Duration                                 : 1 h 30 min
  38. Bit rate mode                            : Constant
  39. Bit rate                                 : 384 kb/s
  40. Channel(s)                               : 6 channels
  41. Channel layout                           : L R C LFE Ls Rs
  42. Sampling rate                            : 48.0 kHz
  43. Frame rate                               : 31.250 FPS (1536 SPF)
  44. Bit depth                                : 16 bits
  45. Compression mode                         : Lossy
  46. Stream size                              : 249 MiB (8%)
  47. Title                                    : Realms.2017.1080p.WEB-DL.DD5.1.H.264-FGT
  48. Language                                 : English
  49. Service kind                             : Complete Main
  50. Default                                  : Yes
  51. Forced                                   : No

  52. Menu
  53. 00:00:00.000                             : en:1
  54. 00:07:49.000                             : en:2
  55. 00:14:51.000                             : en:3
  56. 00:22:58.000                             : en:4
  57. 00:31:40.000                             : en:5
  58. 00:46:20.000                             : en:6
  59. 00:57:43.000                             : en:7
  60. 01:04:50.000                             : en:8
  61. 01:13:47.000                             : en:9
  62. 01:24:35.000                             : en:10
  63. 01:26:21.000                             : en:11
复制代码

范畴 Realms.2017.1080p.WEB-DL.DD5.1.H264-FGT 3.14GB-2.png 范畴 Realms.2017.1080p.WEB-DL.DD5.1.H264-FGT 3.14GB-3.png 范畴 Realms.2017.1080p.WEB-DL.DD5.1.H264-FGT 3.14GB-4.png






回复

使用道具 举报

懒得打字嘛,点击右侧快捷回复 【右侧内容,后台自定义】
您需要登录后才可以回帖 登录 | 立即加入

本版积分规则

Archiver|小黑屋| 蓝光电影网 |网站地图

Copyright © 2021 Comsenz Inc. Powered by 蓝光电影网

蓝光电影网

本站内容由用户自主分享和转载自互联网,转载目的在于传递更多信息,并不代表本网赞同其观点和对其真实性负责。

如有侵权、违反国家法律政策行为,请联系我们,我们会第一时间及时清除和处理!

举报反馈邮箱:[email protected]

快速回复 返回顶部 返回列表