找回密码

蓝光电影网

查看: 455|回复: 0

[剧情] 我曾更黑暗/黑暗的女人 I.Used.To.Be.Darker.2013.1080p.WEB-DL.DD5.1.H264-FGT 2.67GB

[复制链接]
蓝光币
1022
发表于 2020-1-28 19:12:25 | 显示全部楼层 |阅读模式
我曾更黑暗/黑暗的女人 I.Used.To.Be.Darker.2013.1080p.WEB-DL.DD5.1.H264-FGT 2.67GB-1.png

译  名 我曾更黑暗 / 黑暗的女人(台)
片  名 I Used to Be Darker
年  代 2013
产  地 美国
类  别 剧情 / 音乐 / 歌舞 / 家庭
语  言 英语
上映日期 2013-10-04(美国)
IMDb评分  5.6/10 from 887 users
IMDb链接  https://www.imdb.com/title/tt2147728
豆瓣评分 6.6/10 from 46 users
豆瓣链接 https://movie.douban.com/subject/19899886/
片  长 90分钟
导  演 Matthew Porterfield
编  剧 Matthew Porterfield
主  演 Deragh Campbell
       Hannah Gross
       Ned Oldham
       Kim Taylor
       Juan Eloy Carrera
       阿黛尔·艾克萨勒霍布洛斯 Adèle Exarchopoulos


标  签 美国 | 美国电影 | 文艺 | 剧情 | 2013 | 歌舞 | Adèle·Exarchopoulos | 美國

简  介  

  When Taryn, a Northern Irish runaway, finds herself in trouble in Ocean City, MD, she seeks refuge with her aunt and uncle in Baltimore. But Kim and Bill have problems of their own: they're trying to handle the end of their marriage gracefully for the sake of their daughter Abby, just home from her first year of college. A story of family revelations, people finding each other and letting each other go, looking for love where they've found it before and, when that doesn't work, figuring out where they might find it next
  1. Video
  2. ID                                       : 1
  3. Format                                   : AVC
  4. Format/Info                              : Advanced Video Codec
  5. Format profile                           : [email protected]
  6. Format settings                          : CABAC / 5 Ref Frames
  7. Format settings, CABAC                   : Yes
  8. Format settings, Reference frames        : 5 frames
  9. Codec ID                                 : V_MPEG4/ISO/AVC
  10. Duration                                 : 1 h 29 min
  11. Bit rate                                 : 3 818 kb/s
  12. Width                                    : 1 920 pixels
  13. Height                                   : 818 pixels
  14. Display aspect ratio                     : 2.35:1
  15. Frame rate mode                          : Constant
  16. Frame rate                               : 24.000 FPS
  17. Color space                              : YUV
  18. Chroma subsampling                       : 4:2:0
  19. Bit depth                                : 8 bits
  20. Scan type                                : Progressive
  21. Bits/(Pixel*Frame)                       : 0.101
  22. Stream size                              : 2.38 GiB (89%)
  23. Language                                 : English
  24. Default                                  : Yes
  25. Forced                                   : No
  26. Color range                              : Limited
  27. Color primaries                          : BT.709
  28. Transfer characteristics                 : BT.709
  29. Matrix coefficients                      : BT.709

  30. Audio
  31. ID                                       : 2
  32. Format                                   : AC-3
  33. Format/Info                              : Audio Coding 3
  34. Commercial name                          : Dolby Digital
  35. Codec ID                                 : A_AC3
  36. Duration                                 : 1 h 29 min
  37. Bit rate mode                            : Constant
  38. Bit rate                                 : 384 kb/s
  39. Channel(s)                               : 6 channels
  40. Channel layout                           : L R C LFE Ls Rs
  41. Sampling rate                            : 48.0 kHz
  42. Frame rate                               : 31.250 FPS (1536 SPF)
  43. Bit depth                                : 16 bits
  44. Compression mode                         : Lossy
  45. Stream size                              : 245 MiB (9%)
  46. Language                                 : English
  47. Service kind                             : Complete Main
  48. Default                                  : Yes
  49. Forced                                   : No

  50. Text
  51. ID                                       : 3
  52. Format                                   : UTF-8
  53. Codec ID                                 : S_TEXT/UTF8
  54. Codec ID/Info                            : UTF-8 Plain Text
  55. Language                                 : English
  56. Default                                  : No
  57. Forced                                   : No

  58. Menu
  59. 00:00:00.000                             : en:Opening Sequence
  60. 00:07:10.000                             : en:Do You Have A Reservation?
  61. 00:12:25.000                             : en:Wandering
  62. 00:18:29.000                             : en:Good Morning Sunshine
  63. 00:24:34.000                             : en:Catch
  64. 00:31:33.000                             : en:Get In
  65. 00:38:01.000                             : en:Two Months Ago
  66. 00:42:32.000                             : en:Girls Here?
  67. 00:48:53.000                             : en:You And Abby Had A Fight?
  68. 00:55:04.000                             : en:Leaving
  69. 00:59:22.000                             : en:Drive
  70. 01:06:18.000                             : en:Thanks For Coming
  71. 01:11:34.000                             : en:I Need Some Air
  72. 01:15:30.000                             : en:Morning, Cliff
  73. 01:20:46.000                             : en:You Don't Have To Shout
  74. 01:26:00.000                             : en:End Credits
复制代码

我曾更黑暗/黑暗的女人 I.Used.To.Be.Darker.2013.1080p.WEB-DL.DD5.1.H264-FGT 2.67GB-2.png 我曾更黑暗/黑暗的女人 I.Used.To.Be.Darker.2013.1080p.WEB-DL.DD5.1.H264-FGT 2.67GB-3.png 我曾更黑暗/黑暗的女人 I.Used.To.Be.Darker.2013.1080p.WEB-DL.DD5.1.H264-FGT 2.67GB-4.png 我曾更黑暗/黑暗的女人 I.Used.To.Be.Darker.2013.1080p.WEB-DL.DD5.1.H264-FGT 2.67GB-5.png 我曾更黑暗/黑暗的女人 I.Used.To.Be.Darker.2013.1080p.WEB-DL.DD5.1.H264-FGT 2.67GB-1.png 我曾更黑暗/黑暗的女人 I.Used.To.Be.Darker.2013.1080p.WEB-DL.DD5.1.H264-FGT 2.67GB-7.png






回复

使用道具 举报

懒得打字嘛,点击右侧快捷回复 【右侧内容,后台自定义】
您需要登录后才可以回帖 登录 | 立即加入

本版积分规则

Archiver|小黑屋| 蓝光电影网 |网站地图

Copyright © 2021 Comsenz Inc. Powered by 蓝光电影网

蓝光电影网

本站内容由用户自主分享和转载自互联网,转载目的在于传递更多信息,并不代表本网赞同其观点和对其真实性负责。

如有侵权、违反国家法律政策行为,请联系我们,我们会第一时间及时清除和处理!

举报反馈邮箱:[email protected]

快速回复 返回顶部 返回列表