找回密码

蓝光电影网

查看: 563|回复: 2

[剧情] 山羊/羊男斗兽场 Goat.2016.1080p.WEB-DL.DD5.1.H.264-FGT 4.04GB

[复制链接]
蓝光币
953
发表于 2020-1-28 22:29:50 | 显示全部楼层 |阅读模式
山羊/羊男斗兽场 Goat.2016.1080p.WEB-DL.DD5.1.H.264-FGT 4.04GB-1.png

译  名 山羊 / 羊男斗兽场(台)
片  名 Goat
年  代 2016
产  地 美国
类  别 剧情 / 同性
语  言 英语
上映日期 2016-01-22(圣丹斯电影节) / 2016-09-23(美国)
IMDb评分  5.7/10 from 7052 users
IMDb链接  https://www.imdb.com/title/tt4437216
豆瓣评分 5.2/10 from 669 users
豆瓣链接 https://movie.douban.com/subject/26331201/
片  长 102分钟
导  演 安德鲁·尼尔 Andrew Neel
编  剧 大卫·戈登·格林 David Gordon Green / 布拉德·兰德 Brad Land / 安德鲁·尼尔 Andrew Neel / 迈克·罗伯茨 Mike Roberts
主  演 本·施耐泽 Ben Schnetzer
       尼克·乔纳斯 Nick Jonas
       格斯·哈尔珀 Gus Halper
       丹尼尔·弗莱厄蒂 Daniel Flaherty
       维吉尼亚·加德纳 Virginia Gardner
       杰克·皮克金 Jake Picking
       布罗克·尤利 Brock Yurich
       威尔·普伦 Will Pullen
       奥斯汀·利昂 Austin Lyon
       埃里克·斯塔夫斯 Eric Staves
       詹姆斯·弗兰科 James Franco
       杰玛尔·杰克逊 Jamar Jackson
       凯文·克劳利 Kevin Crowley
       劳伦·克努森 Lauren Knutson
       乔恩·奥斯贝克 Jon Osbeck
       丹妮丝·达·维拉 Denise Dal Vera
       佩珀·斯威尼 Pepper Sweeney


标  签 美国 | 青春 | 2016 | 同性 | 剧情 | 校园 | 文艺 | 兄弟会

简  介  

  影片故事报告19岁男孩(施耐泽)与弟弟(乔纳斯)一路进入大黉舍园,申请加入同一个兄弟会,展开惨烈合作,兄弟情蒙受考验。

获奖情况  

  第32届圣丹斯电影节(2016)
  评审团大奖 剧情片(提名)
  1. Video
  2. ID                                       : 1
  3. Format                                   : AVC
  4. Format/Info                              : Advanced Video Codec
  5. Format profile                           : [email protected]
  6. Format settings                          : CABAC / 4 Ref Frames
  7. Format settings, CABAC                   : Yes
  8. Format settings, Reference frames        : 4 frames
  9. Codec ID                                 : V_MPEG4/ISO/AVC
  10. Duration                                 : 1 h 42 min
  11. Bit rate                                 : 5 151 kb/s
  12. Width                                    : 1 916 pixels
  13. Height                                   : 1 076 pixels
  14. Display aspect ratio                     : 16:9
  15. Frame rate mode                          : Constant
  16. Frame rate                               : 23.976 FPS
  17. Color space                              : YUV
  18. Chroma subsampling                       : 4:2:0
  19. Bit depth                                : 8 bits
  20. Scan type                                : Progressive
  21. Bits/(Pixel*Frame)                       : 0.104
  22. Stream size                              : 3.69 GiB (91%)
  23. Title                                    : SadeceBluRay.comGoat.2016.1080p.WEB-DL.DD.5.1.H.264-FGT
  24. Language                                 : English
  25. Default                                  : Yes
  26. Forced                                   : No
  27. Color range                              : Limited
  28. Color primaries                          : BT.709
  29. Transfer characteristics                 : BT.709
  30. Matrix coefficients                      : BT.709

  31. Audio
  32. ID                                       : 2
  33. Format                                   : AC-3
  34. Format/Info                              : Audio Coding 3
  35. Commercial name                          : Dolby Digital
  36. Codec ID                                 : A_AC3
  37. Duration                                 : 1 h 42 min
  38. Bit rate mode                            : Constant
  39. Bit rate                                 : 384 kb/s
  40. Channel(s)                               : 6 channels
  41. Channel layout                           : L R C LFE Ls Rs
  42. Sampling rate                            : 48.0 kHz
  43. Frame rate                               : 31.250 FPS (1536 SPF)
  44. Bit depth                                : 16 bits
  45. Compression mode                         : Lossy
  46. Stream size                              : 281 MiB (7%)
  47. Title                                    : Goat.2016.1080p.WEB-DL.DD.5.1.H.264-FGT
  48. Language                                 : English
  49. Service kind                             : Complete Main
  50. Default                                  : Yes
  51. Forced                                   : No

  52. Text
  53. ID                                       : 3
  54. Format                                   : UTF-8
  55. Codec ID                                 : S_TEXT/UTF8
  56. Codec ID/Info                            : UTF-8 Plain Text
  57. Language                                 : English
  58. Default                                  : Yes
  59. Forced                                   : No

  60. Menu
  61. 00:00:00.000                             : en:Chapter 1
  62. 00:07:06.000                             : en:Chapter 2
  63. 00:16:54.000                             : en:Chapter 3
  64. 00:26:44.000                             : en:Chapter 4
  65. 00:34:12.000                             : en:Chapter 5
  66. 00:42:42.000                             : en:Chapter 6
  67. 00:52:36.000                             : en:Chapter 7
  68. 01:01:24.000                             : en:Chapter 8
  69. 01:11:02.000                             : en:Chapter 9
  70. 01:19:35.000                             : en:Chapter 10
  71. 01:29:02.000                             : en:Chapter 11
  72. 01:37:30.000                             : en:Chapter 12
复制代码

山羊/羊男斗兽场 Goat.2016.1080p.WEB-DL.DD5.1.H.264-FGT 4.04GB-2.png 山羊/羊男斗兽场 Goat.2016.1080p.WEB-DL.DD5.1.H.264-FGT 4.04GB-3.png 山羊/羊男斗兽场 Goat.2016.1080p.WEB-DL.DD5.1.H.264-FGT 4.04GB-4.png 山羊/羊男斗兽场 Goat.2016.1080p.WEB-DL.DD5.1.H.264-FGT 4.04GB-5.png 山羊/羊男斗兽场 Goat.2016.1080p.WEB-DL.DD5.1.H.264-FGT 4.04GB-6.png 山羊/羊男斗兽场 Goat.2016.1080p.WEB-DL.DD5.1.H.264-FGT 4.04GB-7.png





回复

使用道具 举报

懒得打字嘛,点击右侧快捷回复 【右侧内容,后台自定义】
您需要登录后才可以回帖 登录 | 立即加入

本版积分规则

Archiver|小黑屋| 蓝光电影网 |网站地图

Copyright © 2021 Comsenz Inc. Powered by 蓝光电影网

蓝光电影网

本站内容由用户自主分享和转载自互联网,转载目的在于传递更多信息,并不代表本网赞同其观点和对其真实性负责。

如有侵权、违反国家法律政策行为,请联系我们,我们会第一时间及时清除和处理!

举报反馈邮箱:[email protected]

快速回复 返回顶部 返回列表