找回密码

蓝光电影网

查看: 228|回复: 0

[剧情] 北上 Go.North.2017.1080p.WEB-DL.DD5.1.H264-FGT 3.63GB

[复制链接]
蓝光币
1022
发表于 2020-1-28 22:32:27 | 显示全部楼层 |阅读模式
北上 Go.North.2017.1080p.WEB-DL.DD5.1.H264-FGT 3.63GB-1.png

译  名 北上
片  名 North
年  代 2016
产  地 美国
类  别 剧情
语  言 英语
上映日期 2017-01-13
IMDb评分  4.2/10 from 462 users
IMDb链接  https://www.imdb.com/title/tt4960764
豆瓣评分 0/10 from 0 users
豆瓣链接 https://movie.douban.com/subject/26609930/
片  长 105分钟
导  演 Matthew Ogens
编  剧 Matthew Ogens / Kyle Lierman
主  演 帕特里克·施瓦辛格 Patrick Schwarzenegger
       雅库布·洛弗兰德 Jacob Lofland
       祖舒华·克洛斯 Joshua Close
       苏菲·肯尼迪·克拉克 Sophie Kennedy Clark


标  签 美国 | 悬疑

简  介  

  In the aftermath of an unknown catastrophe, a community left with zero living adults has descended into a modern-day Lord of the Flies, run by a small cabal of what had been the jocks occupying the athletic and social upper crust of the local high school, headed by Caleb (Patrick Schwarzenegger, SCOUTS GUIDE TO THE ZOMBIE APOCALYPSE). Faced with the bleak despair of their situation, Josh (Jacob Lofland, MUD) and Jessie (Sophie Kennedy Clark, PHILOMENA) strike out on a dangerous journey into the unknown to find family and hope for the future, with Caleb and his vicious underling Gentry (James Bloor, LEATHERFACE) in hot [email protected]://www.btbtdy.com
  1. Video
  2. ID                                       : 1
  3. Format                                   : AVC
  4. Format/Info                              : Advanced Video Codec
  5. Format profile                           : [email protected]
  6. Format settings                          : CABAC / 4 Ref Frames
  7. Format settings, CABAC                   : Yes
  8. Format settings, Reference frames        : 4 frames
  9. Codec ID                                 : V_MPEG4/ISO/AVC
  10. Duration                                 : 1 h 34 min
  11. Bit rate                                 : 5 024 kb/s
  12. Width                                    : 1 916 pixels
  13. Height                                   : 1 032 pixels
  14. Display aspect ratio                     : 1.85:1
  15. Frame rate mode                          : Constant
  16. Frame rate                               : 23.976 FPS
  17. Color space                              : YUV
  18. Chroma subsampling                       : 4:2:0
  19. Bit depth                                : 8 bits
  20. Scan type                                : Progressive
  21. Bits/(Pixel*Frame)                       : 0.106
  22. Stream size                              : 3.30 GiB (91%)
  23. Title                                    : Go.North.2017.1080p.WEB-DL.DD5.1.H264-FGT
  24. Language                                 : English
  25. Default                                  : Yes
  26. Forced                                   : No
  27. Color range                              : Limited
  28. Color primaries                          : BT.709
  29. Transfer characteristics                 : BT.709
  30. Matrix coefficients                      : BT.709

  31. Audio
  32. ID                                       : 2
  33. Format                                   : AC-3
  34. Format/Info                              : Audio Coding 3
  35. Commercial name                          : Dolby Digital
  36. Codec ID                                 : A_AC3
  37. Duration                                 : 1 h 34 min
  38. Bit rate mode                            : Constant
  39. Bit rate                                 : 384 kb/s
  40. Channel(s)                               : 6 channels
  41. Channel layout                           : L R C LFE Ls Rs
  42. Sampling rate                            : 48.0 kHz
  43. Frame rate                               : 31.250 FPS (1536 SPF)
  44. Bit depth                                : 16 bits
  45. Compression mode                         : Lossy
  46. Stream size                              : 259 MiB (7%)
  47. Title                                    : Go.North.2017.1080p.WEB-DL.DD5.1.H264-FGT
  48. Language                                 : English
  49. Service kind                             : Complete Main
  50. Default                                  : Yes
  51. Forced                                   : No

  52. Text
  53. ID                                       : 3
  54. Format                                   : UTF-8
  55. Codec ID                                 : S_TEXT/UTF8
  56. Codec ID/Info                            : UTF-8 Plain Text
  57. Language                                 : English
  58. Default                                  : Yes
  59. Forced                                   : No

  60. Menu
  61. 00:00:00.000                             : en:1
  62. 00:14:26.000                             : en:2
  63. 00:27:17.000                             : en:3
  64. 00:42:21.000                             : en:4
  65. 00:55:24.000                             : en:5
  66. 01:09:00.000                             : en:6
  67. 01:22:23.000                             : en:7
复制代码

北上 Go.North.2017.1080p.WEB-DL.DD5.1.H264-FGT 3.63GB-2.png 北上 Go.North.2017.1080p.WEB-DL.DD5.1.H264-FGT 3.63GB-3.png 北上 Go.North.2017.1080p.WEB-DL.DD5.1.H264-FGT 3.63GB-4.png 北上 Go.North.2017.1080p.WEB-DL.DD5.1.H264-FGT 3.63GB-5.png 北上 Go.North.2017.1080p.WEB-DL.DD5.1.H264-FGT 3.63GB-6.png 北上 Go.North.2017.1080p.WEB-DL.DD5.1.H264-FGT 3.63GB-7.png






回复

使用道具 举报

懒得打字嘛,点击右侧快捷回复 【右侧内容,后台自定义】
您需要登录后才可以回帖 登录 | 立即加入

本版积分规则

Archiver|小黑屋| 蓝光电影网 |网站地图

Copyright © 2021 Comsenz Inc. Powered by 蓝光电影网

蓝光电影网

本站内容由用户自主分享和转载自互联网,转载目的在于传递更多信息,并不代表本网赞同其观点和对其真实性负责。

如有侵权、违反国家法律政策行为,请联系我们,我们会第一时间及时清除和处理!

举报反馈邮箱:[email protected]

快速回复 返回顶部 返回列表