找回密码

蓝光电影网

查看: 315|回复: 0

[剧情] 埃德沃德·迈布里奇 Eadweard.2015.1080p.WEB-DL.DD5.1.H264-FGT 3.67GB

[复制链接]
蓝光币
886
发表于 2020-1-28 22:34:34 | 显示全部楼层 |阅读模式
埃德沃德·迈布里奇 Eadweard.2015.1080p.WEB-DL.DD5.1.H264-FGT 3.67GB-1.png

译  名 埃德沃德·迈布里奇 / Eadweard Muybridge / 光影魔法师(台)
片  名 Eadweard
年  代 2015
产  地 加拿大
类  别 剧情
语  言 英语
上映日期 2015-02-06(柏林电影节)
IMDb评分  6.4/10 from 456 users
IMDb链接  https://www.imdb.com/title/tt2782868
豆瓣评分 0/10 from 0 users
豆瓣链接 https://movie.douban.com/subject/25792284/
片  长 104分钟
导  演 凯尔·赖德奥特 Kyle Rideout
编  剧 凯尔·赖德奥特 Kyle Rideout / 乔希·艾普斯汀 Josh Epstein
主  演 迈克尔·艾克朗德 Michael Eklund
       莎拉·坎宁 Sara Canning
       克里斯托弗·赫耶达尔 Christopher Heyerdahl
       查理·卡里克 Charlie Carrick
       乔迪·巴尔弗 Jodi Balfour
       托伦斯·库姆斯 Torrance Coombs
       科特·图尔顿 Kett Turton
       威廉·C·沃恩 William C. Vaughan
       伊安·崔西 Ian Tracey
       乔希·艾普斯汀 Josh Epstein


标  签 加拿大 | 列传 | 2015 | 加拿大电影 | 英美 | 电影 | 摄影 | 【加拿大】

简  介  

  A psychological drama centered around world-famous turn-of-the-century photographer, Eadweard Muybridge who photographed nude and deformed subjects, became the godfather of cinema, murdered his wife's lover, and was the last American to receive the justifiable homicide verdict.
  1. Video
  2. ID                                       : 1
  3. Format                                   : AVC
  4. Format/Info                              : Advanced Video Codec
  5. Format profile                           : [email protected]
  6. Format settings                          : CABAC / 5 Ref Frames
  7. Format settings, CABAC                   : Yes
  8. Format settings, Reference frames        : 5 frames
  9. Codec ID                                 : V_MPEG4/ISO/AVC
  10. Duration                                 : 1 h 46 min
  11. Bit rate                                 : 4 464 kb/s
  12. Width                                    : 1 920 pixels
  13. Height                                   : 806 pixels
  14. Display aspect ratio                     : 2.40:1
  15. Frame rate mode                          : Constant
  16. Frame rate                               : 23.976 FPS
  17. Color space                              : YUV
  18. Chroma subsampling                       : 4:2:0
  19. Bit depth                                : 8 bits
  20. Scan type                                : Progressive
  21. Bits/(Pixel*Frame)                       : 0.120
  22. Stream size                              : 3.31 GiB (90%)
  23. Title                                    : Eadweard.2015.1080p.WEB-DL.DD5.1.H264-FGT
  24. Language                                 : English
  25. Default                                  : Yes
  26. Forced                                   : No
  27. Color range                              : Limited
  28. Color primaries                          : BT.709
  29. Transfer characteristics                 : BT.709
  30. Matrix coefficients                      : BT.709

  31. Audio
  32. ID                                       : 2
  33. Format                                   : AC-3
  34. Format/Info                              : Audio Coding 3
  35. Commercial name                          : Dolby Digital
  36. Codec ID                                 : A_AC3
  37. Duration                                 : 1 h 46 min
  38. Bit rate mode                            : Constant
  39. Bit rate                                 : 384 kb/s
  40. Channel(s)                               : 6 channels
  41. Channel layout                           : L R C LFE Ls Rs
  42. Sampling rate                            : 48.0 kHz
  43. Frame rate                               : 31.250 FPS (1536 SPF)
  44. Bit depth                                : 16 bits
  45. Compression mode                         : Lossy
  46. Stream size                              : 292 MiB (8%)
  47. Title                                    : Eadweard.2015.1080p.WEB-DL.DD5.1.H264-FGT
  48. Language                                 : English
  49. Service kind                             : Complete Main
  50. Default                                  : Yes
  51. Forced                                   : No

  52. Text
  53. ID                                       : 3
  54. Format                                   : UTF-8
  55. Codec ID                                 : S_TEXT/UTF8
  56. Codec ID/Info                            : UTF-8 Plain Text
  57. Language                                 : English
  58. Default                                  : Yes
  59. Forced                                   : No

  60. Menu
  61. 00:00:00.000                             : en:Opening Sequence
  62. 00:07:05.000                             : en:It's Never Enough
  63. 00:13:30.000                             : en:Things Happen
  64. 00:20:36.000                             : en:This Is Science
  65. 00:28:18.000                             : en:New Series
  66. 00:33:31.000                             : en:I Was Imagining
  67. 00:40:56.000                             : en:I'm Your Wife
  68. 00:48:04.000                             : en:Example Of Form
  69. 00:55:17.000                             : en:Volunteers
  70. 01:01:47.000                             : en:We're Ready
  71. 01:09:11.000                             : en:Formula For Grace
  72. 01:15:56.000                             : en:Stay Away
  73. 01:21:01.000                             : en:Something To Witness
  74. 01:27:48.000                             : en:Am I Dreaming?
  75. 01:31:48.000                             : en:A Message
  76. 01:40:43.000                             : en:End Credits
复制代码

埃德沃德·迈布里奇 Eadweard.2015.1080p.WEB-DL.DD5.1.H264-FGT 3.67GB-2.png 埃德沃德·迈布里奇 Eadweard.2015.1080p.WEB-DL.DD5.1.H264-FGT 3.67GB-3.png 埃德沃德·迈布里奇 Eadweard.2015.1080p.WEB-DL.DD5.1.H264-FGT 3.67GB-4.png 埃德沃德·迈布里奇 Eadweard.2015.1080p.WEB-DL.DD5.1.H264-FGT 3.67GB-5.png 埃德沃德·迈布里奇 Eadweard.2015.1080p.WEB-DL.DD5.1.H264-FGT 3.67GB-6.png 埃德沃德·迈布里奇 Eadweard.2015.1080p.WEB-DL.DD5.1.H264-FGT 3.67GB-7.png






回复

使用道具 举报

懒得打字嘛,点击右侧快捷回复 【右侧内容,后台自定义】
您需要登录后才可以回帖 登录 | 立即加入

本版积分规则

Archiver|小黑屋| 蓝光电影网 |网站地图

Copyright © 2021 Comsenz Inc. Powered by 蓝光电影网

蓝光电影网

本站内容由用户自主分享和转载自互联网,转载目的在于传递更多信息,并不代表本网赞同其观点和对其真实性负责。

如有侵权、违反国家法律政策行为,请联系我们,我们会第一时间及时清除和处理!

举报反馈邮箱:[email protected]

快速回复 返回顶部 返回列表