找回密码

蓝光电影网

查看: 313|回复: 0

[惊悚] 下课 Dismissed.2017.1080p.WEB-DL.DD5.1.H264-FGT 3.02GB

[复制链接]
蓝光币
886
发表于 2020-1-28 22:39:09 | 显示全部楼层 |阅读模式
下课 Dismissed.2017.1080p.WEB-DL.DD5.1.H264-FGT 3.02GB-1.png

译  名 下课
片  名 Dismissed
年  代 2017
产  地 美国
类  别 惊悚 / 可骇
语  言 英语
上映日期 2017-10-08(圣地亚哥电影节) / 2017-11-21(美国视频点播)
IMDb评分  5.7/10 from 5873 users
IMDb链接  https://www.imdb.com/title/tt5039994
豆瓣评分 6.0/10 from 958 users
豆瓣链接 https://movie.douban.com/subject/26769179/
片  长 87分钟
导  演 本杰明·阿尔弗曼 Benjamin Arfmann
编  剧 布瑞恩·麦考利 Brian McAuley
主  演 迪伦·斯普罗斯 Dylan Sprouse
       蕾·格雷 Rae Gray
       肯特·奥斯博内 Kent Osborne
       艾莉西亚·戴尔莫 Alycia Delmore
       米切尔·爱德华兹 Mitchell Edwards
       维多利亚·泽兹乌斯 Victoria Zeutzius
       克里斯·鲍尔 Chris Bauer
       莱斯丽·瑟斯顿 Leslie Thurston
       马修·J·伊万斯 Matthew J. Evans
       兰道尔·朴 Randall Park
       马克·凯利 Mark Kelly
       海伦·索拉娅 Helen Soraya
       罗伯特·朗斯特里特 Robert Longstreet
       布鲁克·迪尔曼 Brooke Dillman
       珍妮特·摩丝 Jeanette Maus
       罗万·史姑娘 Rowan Smyth
       欧文·达格特 Owen Dagget
       多麦妮·哈维尔 Domaine Javier


标  签 美国 | 惊悚 | 犯罪 | 人性 | 剧情 | 2017 | 可骇 | 青春

简  介  

  身为理想主义、成就优异的卢卡斯,为了获得全A成就,不惜利用一切手段,甚至操控父亲和女同学。惋惜,此次他碰到了绝不妥协的国文教员……
  1. Video
  2. ID                                       : 1
  3. Format                                   : AVC
  4. Format/Info                              : Advanced Video Codec
  5. Format profile                           : [email protected]
  6. Format settings                          : CABAC / 5 Ref Frames
  7. Format settings, CABAC                   : Yes
  8. Format settings, Reference frames        : 5 frames
  9. Codec ID                                 : V_MPEG4/ISO/AVC
  10. Duration                                 : 1 h 26 min
  11. Bit rate                                 : 4 484 kb/s
  12. Width                                    : 1 920 pixels
  13. Height                                   : 816 pixels
  14. Display aspect ratio                     : 2.35:1
  15. Frame rate mode                          : Constant
  16. Frame rate                               : 23.976 FPS
  17. Color space                              : YUV
  18. Chroma subsampling                       : 4:2:0
  19. Bit depth                                : 8 bits
  20. Scan type                                : Progressive
  21. Bits/(Pixel*Frame)                       : 0.119
  22. Stream size                              : 2.72 GiB (90%)
  23. Title                                    : Dismissed.2017.1080p.WEB-DL.DD5.1.H264-FGT
  24. Language                                 : English
  25. Default                                  : Yes
  26. Forced                                   : No
  27. Color range                              : Limited
  28. Color primaries                          : BT.709
  29. Transfer characteristics                 : BT.709
  30. Matrix coefficients                      : BT.709

  31. Audio
  32. ID                                       : 2
  33. Format                                   : AC-3
  34. Format/Info                              : Audio Coding 3
  35. Commercial name                          : Dolby Digital
  36. Codec ID                                 : A_AC3
  37. Duration                                 : 1 h 26 min
  38. Bit rate mode                            : Constant
  39. Bit rate                                 : 384 kb/s
  40. Channel(s)                               : 6 channels
  41. Channel layout                           : L R C LFE Ls Rs
  42. Sampling rate                            : 48.0 kHz
  43. Frame rate                               : 31.250 FPS (1536 SPF)
  44. Bit depth                                : 16 bits
  45. Compression mode                         : Lossy
  46. Stream size                              : 239 MiB (8%)
  47. Title                                    : Dismissed.2017.1080p.WEB-DL.DD5.1.H264-FGT
  48. Language                                 : English
  49. Service kind                             : Complete Main
  50. Default                                  : Yes
  51. Forced                                   : No

  52. Menu
  53. 00:00:00.000                             : en:Chapter One
  54. 00:15:00.000                             : en:Chapter Two
  55. 00:30:00.000                             : en:Chapter Three
  56. 00:45:00.000                             : en:Chapter Four
  57. 01:00:00.000                             : en:Chapter Five
  58. 01:15:00.000                             : en:Chapter Six
复制代码

下课 Dismissed.2017.1080p.WEB-DL.DD5.1.H264-FGT 3.02GB-2.png 下课 Dismissed.2017.1080p.WEB-DL.DD5.1.H264-FGT 3.02GB-3.png 下课 Dismissed.2017.1080p.WEB-DL.DD5.1.H264-FGT 3.02GB-4.png 下课 Dismissed.2017.1080p.WEB-DL.DD5.1.H264-FGT 3.02GB-5.png 下课 Dismissed.2017.1080p.WEB-DL.DD5.1.H264-FGT 3.02GB-6.png 下课 Dismissed.2017.1080p.WEB-DL.DD5.1.H264-FGT 3.02GB-7.png






回复

使用道具 举报

懒得打字嘛,点击右侧快捷回复 【右侧内容,后台自定义】
您需要登录后才可以回帖 登录 | 立即加入

本版积分规则

Archiver|小黑屋| 蓝光电影网 |网站地图

Copyright © 2021 Comsenz Inc. Powered by 蓝光电影网

蓝光电影网

本站内容由用户自主分享和转载自互联网,转载目的在于传递更多信息,并不代表本网赞同其观点和对其真实性负责。

如有侵权、违反国家法律政策行为,请联系我们,我们会第一时间及时清除和处理!

举报反馈邮箱:[email protected]

快速回复 返回顶部 返回列表