找回密码

蓝光电影网

查看: 134|回复: 0

[剧情] 沉默的联系 Bond.of.Silence.2010.1080p.WEB-DL.DD5.1.H264-PfXCPI 3.27GB

[复制链接]
蓝光币
886
发表于 2020-1-28 22:40:50 | 显示全部楼层 |阅读模式
沉默的联系 Bond.of.Silence.2010.1080p.WEB-DL.DD5.1.H264-PfXCPI 3.27GB-1.png

译  名 沉默的联系
片  名 Bond of Silence
产  地 美国
类  别 剧情
语  言 英语
上映日期 2010-08-23
IMDb评分  6.1/10 from 902 users
IMDb链接  https://www.imdb.com/title/tt1659192
豆瓣评分 6.5/10 from 106 users
豆瓣链接 https://movie.douban.com/subject/5041506/
片  长 98分钟
导  演 Peter Werner
编  剧 Edithe Swensen / Brian D. Young
主  演 基姆·瑞弗 Kim Raver
       格雷戈·格伦伯格


标  签 青少年犯罪 | 犯罪 | 美国电影 | 美国 | 美剧 | KimRaver | 2010 | 实在事务改编

简  介  

  A widow's forgiveness. A killer's remorse. Bond of Silence is the true life story of a shocking murder and the amazing bond that came from it. Katy and Bob live a perfect life in a small close knit town. He's a respected lawyer, a renowned tri-athlete. She just had twins. It is New Year's Eve. Teens converge on the house next door. Always the good neighbor, Bob goes to shut it down. A confrontation occurs. Then he's dead. No teen comes forward. The media pours in. Headlines scream. Katy hunts for answers. But no one talks. A bond of silence covers the town. The police do an undercover sting and someone's caught. Ryan, a popular kid, tries to be cool, but the burden of what he did that night is unbelievable. Ryan and his attorney want to plead not guilty, but then Katy and Ryan meet. Where Katy should be a grieving wife, she becomes a supportive mother. Rather than berating, she listens. Rather than accusing, she comforts. And Ryan tells her what happened. Step by step. When Ryan appears in court he pleads guilty. He turns to Katy. The look between them is one of compassion and shared loss. Katy pleads for leniency and makes a horrible ending be a hope-filled beginning
  1. Video
  2. ID                                       : 1
  3. Format                                   : AVC
  4. Format/Info                              : Advanced Video Codec
  5. Format profile                           : [email protected]
  6. Format settings                          : CABAC / 4 Ref Frames
  7. Format settings, CABAC                   : Yes
  8. Format settings, Reference frames        : 4 frames
  9. Codec ID                                 : V_MPEG4/ISO/AVC
  10. Duration                                 : 1 h 27 min
  11. Bit rate                                 : 4 970 kb/s
  12. Width                                    : 1 916 pixels
  13. Height                                   : 1 076 pixels
  14. Display aspect ratio                     : 16:9
  15. Frame rate mode                          : Constant
  16. Frame rate                               : 23.976 FPS
  17. Color space                              : YUV
  18. Chroma subsampling                       : 4:2:0
  19. Bit depth                                : 8 bits
  20. Scan type                                : Progressive
  21. Bits/(Pixel*Frame)                       : 0.101
  22. Stream size                              : 3.04 GiB (93%)
  23. Language                                 : English
  24. Default                                  : Yes
  25. Forced                                   : No
  26. Color range                              : Limited
  27. Color primaries                          : BT.709
  28. Transfer characteristics                 : BT.709
  29. Matrix coefficients                      : BT.709

  30. Audio
  31. ID                                       : 2
  32. Format                                   : AC-3
  33. Format/Info                              : Audio Coding 3
  34. Commercial name                          : Dolby Digital
  35. Codec ID                                 : A_AC3
  36. Duration                                 : 1 h 27 min
  37. Bit rate mode                            : Constant
  38. Bit rate                                 : 384 kb/s
  39. Channel(s)                               : 6 channels
  40. Channel layout                           : L R C LFE Ls Rs
  41. Sampling rate                            : 48.0 kHz
  42. Frame rate                               : 31.250 FPS (1536 SPF)
  43. Bit depth                                : 16 bits
  44. Compression mode                         : Lossy
  45. Stream size                              : 240 MiB (7%)
  46. Language                                 : English
  47. Service kind                             : Complete Main
  48. Default                                  : Yes
  49. Forced                                   : No

  50. Text
  51. ID                                       : 3
  52. Format                                   : UTF-8
  53. Codec ID                                 : S_TEXT/UTF8
  54. Codec ID/Info                            : UTF-8 Plain Text
  55. Duration                                 : 1 h 26 min
  56. Bit rate                                 : 178 b/s
  57. Count of elements                        : 2936
  58. Stream size                              : 113 KiB (0%)
  59. Language                                 : English
  60. Default                                  : Yes
  61. Forced                                   : No

  62. Menu
  63. 00:00:00.000                             : en:Chapter 1
  64. 00:05:26.000                             : en:Chapter 2
  65. 00:11:01.000                             : en:Chapter 3
  66. 00:17:34.000                             : en:Chapter 4
  67. 00:22:03.000                             : en:Chapter 5
  68. 00:27:04.000                             : en:Chapter 6
  69. 00:31:57.000                             : en:Chapter 7
  70. 00:36:46.000                             : en:Chapter 8
  71. 00:42:05.000                             : en:Chapter 9
  72. 00:45:59.000                             : en:Chapter 10
  73. 00:50:40.000                             : en:Chapter 11
  74. 00:55:47.000                             : en:Chapter 12
  75. 01:02:14.000                             : en:Chapter 13
  76. 01:07:34.000                             : en:Chapter 14
  77. 01:13:59.000                             : en:Chapter 15
  78. 01:19:16.000                             : en:Chapter 16
复制代码

沉默的联系 Bond.of.Silence.2010.1080p.WEB-DL.DD5.1.H264-PfXCPI 3.27GB-2.png 沉默的联系 Bond.of.Silence.2010.1080p.WEB-DL.DD5.1.H264-PfXCPI 3.27GB-3.png 沉默的联系 Bond.of.Silence.2010.1080p.WEB-DL.DD5.1.H264-PfXCPI 3.27GB-1.png






回复

使用道具 举报

懒得打字嘛,点击右侧快捷回复 【右侧内容,后台自定义】
您需要登录后才可以回帖 登录 | 立即加入

本版积分规则

Archiver|小黑屋| 蓝光电影网 |网站地图

Copyright © 2021 Comsenz Inc. Powered by 蓝光电影网

蓝光电影网

本站内容由用户自主分享和转载自互联网,转载目的在于传递更多信息,并不代表本网赞同其观点和对其真实性负责。

如有侵权、违反国家法律政策行为,请联系我们,我们会第一时间及时清除和处理!

举报反馈邮箱:[email protected]

快速回复 返回顶部 返回列表