找回密码

蓝光电影网

查看: 430|回复: 0

[喜剧] 比佛利山超级警探2/妙探出差2 Beverly.Hills.Cop.II.1987.REMASTERED.720p.BluRay.X264-AMIABLE 6.63GB

[复制链接]
蓝光币
1020
发表于 2020-1-28 22:52:36 | 显示全部楼层 |阅读模式
比佛利山超级警探2/妙探出差2 Beverly.Hills.Cop.II.1987.REMASTERED.720p.BluRay.X264-AMIABLE 6.63GB-1.png

译  名 比佛利山超级警探2 / 妙探出差2 / 妙探出差续集 / 妙探出更续集 / 比佛利山警探2 / 轰天雷2 / 轰隆炮2
片  名 Beverly Hills Cop II
年  代 1987
产  地 美国
类  别 笑剧 / 行动 / 惊悚 / 犯罪
语  言 英语
上映日期 1987-05-20
IMDb评分  6.5/10 from 101566 users
IMDb链接  https://www.imdb.com/title/tt0092644
豆瓣评分 6.7/10 from 983 users
豆瓣链接 https://movie.douban.com/subject/1301783/
片  长 100 分钟
导  演 Tony Scott
编  剧 Larry Ferguson / Warren Skaaren / Danilo Bach / Daniel Petrie Jr. / Eddie Murphy / Robert D. Wachs
主  演 艾迪·墨菲 Eddie Murphy
       祖德·莱茵霍尔德 Judge Reinhold
       尤尔根·普洛斯诺 Jürgen Prochnow
       罗尼·考克斯 Ronny Cox
       John Ashton
       布里吉特·尼尔森 Brigitte Nielsen
       艾伦·加菲尔德 Allen Garfield
       迪恩·斯托克维尔 Dean Stockwell
       保罗·雷瑟 Paul Reiser
       Gilbert R. Hill
       保罗·盖尔福勒 Paul Guilfoyle
       Robert Ridgely
       Brian O'Connor
       Alice Adair
       Eugene Butler


标  签 笑剧 | 美国 | 行动 | 美国电影 | 犯罪 | 1987 | 警匪 | 搞笑

简  介  

  这是比佛利山超级警探的第二集。艾索(艾迪?墨菲 Eddie Murphy 饰)在上一集破案后老老实实地回到了底特律当他的刑警,回到底特律的他顿时感应百无聊赖。因而,艾索每周城市找他在洛山矶办案时结识的好朋友兼好同伴洛山矶警局的局长博格密尔(罗尼?考克斯 Ronny Cox 饰)出海钓鱼。
  可是这周博格密尔姑且取消了和艾索的钓鱼活动,事后艾索才得知本来博格密尔卷入了一单复杂危险的案件侦察中。博格密尔不幸在观察中被犯罪枪击受伤,现在正住在医院里。历来课本气、嫉恶如仇的艾索又怎能按耐得住,因而他顿时来到了洛山矶约上最好同伴比利(祖德?莱茵霍尔德 Judge Reinhold 饰),要一展身手为好友报仇。

获奖情况  

  第60届奥斯卡金像奖(1988)
  最好原创歌曲(提名) 基思·福西 / 哈罗德·方特梅耶 / Bob Seger
  1. Video
  2. ID                                       : 1
  3. Format                                   : AVC
  4. Format/Info                              : Advanced Video Codec
  5. Format profile                           : [email protected]
  6. Format settings                          : CABAC / 12 Ref Frames
  7. Format settings, CABAC                   : Yes
  8. Format settings, Reference frames        : 12 frames
  9. Codec ID                                 : V_MPEG4/ISO/AVC
  10. Duration                                 : 1 h 42 min
  11. Bit rate                                 : 7 607 kb/s
  12. Width                                    : 1 280 pixels
  13. Height                                   : 544 pixels
  14. Display aspect ratio                     : 2.35:1
  15. Frame rate mode                          : Constant
  16. Frame rate                               : 23.976 (24000/1001) FPS
  17. Color space                              : YUV
  18. Chroma subsampling                       : 4:2:0
  19. Bit depth                                : 8 bits
  20. Scan type                                : Progressive
  21. Bits/(Pixel*Frame)                       : 0.456
  22. Stream size                              : 5.34 GiB (81%)
  23. Writing library                          : x264 core 159 r2991 1771b55
  24. Encoding settings                        : cabac=1 / ref=12 / deblock=1:-3:-3 / analyse=0x3:0x133 / me=umh / subme=10 / psy=1 / psy_rd=1.10:0.00 / mixed_ref=1 / me_range=24 / chroma_me=1 / trellis=2 / 8x8dct=1 / cqm=0 / deadzone=21,11 / fast_pskip=0 / chroma_qp_offset=-2 / threads=17 / lookahead_threads=4 / sliced_threads=0 / nr=0 / decimate=0 / interlaced=0 / bluray_compat=0 / constrained_intra=0 / bframes=10 / b_pyramid=2 / b_adapt=2 / b_bias=0 / direct=3 / weightb=1 / open_gop=0 / weightp=2 / keyint=240 / keyint_min=24 / scenecut=40 / intra_refresh=0 / rc_lookahead=60 / rc=2pass / mbtree=1 / bitrate=7607 / ratetol=1.0 / qcomp=0.60 / qpmin=0 / qpmax=69 / qpstep=4 / cplxblur=20.0 / qblur=0.5 / ip_ratio=1.30 / aq=3:0.70
  25. Default                                  : Yes
  26. Forced                                   : No
  27. Statistics Tags Issue                    : no_variable_data 1970-01-01 00:00:00 / no_variable_data 2010-02-22 21:41:29
  28. FromStats_BitRate                        : 7603224
  29. FromStats_Duration                       : 01:42:59.298000000
  30. FromStats_FrameCount                     : 148155
  31. FromStats_StreamSize                     : 5872824031

  32. Audio
  33. ID                                       : 2
  34. Format                                   : DTS
  35. Format/Info                              : Digital Theater Systems
  36. Codec ID                                 : A_DTS
  37. Duration                                 : 1 h 42 min
  38. Bit rate mode                            : Constant
  39. Bit rate                                 : 1 509 kb/s
  40. Channel(s)                               : 6 channels
  41. Channel layout                           : C L R Ls Rs LFE
  42. Sampling rate                            : 48.0 kHz
  43. Frame rate                               : 93.750 FPS (512 SPF)
  44. Bit depth                                : 24 bits
  45. Compression mode                         : Lossy
  46. Stream size                              : 1.09 GiB (17%)
  47. Language                                 : English
  48. Default                                  : Yes
  49. Forced                                   : No
  50. Statistics Tags Issue                    : no_variable_data 1970-01-01 00:00:00 / no_variable_data 2010-02-22 21:41:29
  51. FromStats_BitRate                        : 1508999
  52. FromStats_Duration                       : 01:42:59.307000000
  53. FromStats_FrameCount                     : 579310
  54. FromStats_StreamSize                     : 1165571720

  55. Text #1
  56. ID                                       : 3
  57. Format                                   : UTF-8
  58. Codec ID                                 : S_TEXT/UTF8
  59. Codec ID/Info                            : UTF-8 Plain Text
  60. Language                                 : English
  61. Default                                  : No
  62. Forced                                   : No
  63. Statistics Tags Issue                    : no_variable_data 1970-01-01 00:00:00 / no_variable_data 2010-02-22 21:41:29
  64. FromStats_BitRate                        : 79
  65. FromStats_Duration                       : 01:37:50.406000000
  66. FromStats_FrameCount                     : 1295
  67. FromStats_StreamSize                     : 58671

  68. Text #2
  69. ID                                       : 4
  70. Format                                   : UTF-8
  71. Codec ID                                 : S_TEXT/UTF8
  72. Codec ID/Info                            : UTF-8 Plain Text
  73. Title                                    : SDH
  74. Language                                 : English
  75. Default                                  : No
  76. Forced                                   : No
  77. Statistics Tags Issue                    : no_variable_data 1970-01-01 00:00:00 / no_variable_data 2010-02-22 21:41:29
  78. FromStats_BitRate                        : 80
  79. FromStats_Duration                       : 01:42:02.950000000
  80. FromStats_FrameCount                     : 1408
  81. FromStats_StreamSize                     : 61715

  82. Menu
  83. 00:00:00.000                             : en:Chapter 01
  84. 00:02:51.838                             : en:Chapter 02
  85. 00:09:17.056                             : en:Chapter 03
  86. 00:14:30.286                             : en:Chapter 04
  87. 00:22:11.622                             : en:Chapter 05
  88. 00:29:30.102                             : en:Chapter 06
  89. 00:46:25.741                             : en:Chapter 07
  90. 00:52:24.933                             : en:Chapter 08
  91. 01:02:05.722                             : en:Chapter 09
  92. 01:15:37.366                             : en:Chapter 10
  93. 01:23:45.520                             : en:Chapter 11
  94. 01:36:35.790                             : en:Chapter 12
  95. 01:38:53.344                             : en:Chapter 13
复制代码

比佛利山超级警探2/妙探出差2 Beverly.Hills.Cop.II.1987.REMASTERED.720p.BluRay.X264-AMIABLE 6.63GB-2.png






回复

使用道具 举报

懒得打字嘛,点击右侧快捷回复 【右侧内容,后台自定义】
您需要登录后才可以回帖 登录 | 立即加入

本版积分规则

Archiver|小黑屋| 蓝光电影网 |网站地图

Copyright © 2021 Comsenz Inc. Powered by 蓝光电影网

蓝光电影网

本站内容由用户自主分享和转载自互联网,转载目的在于传递更多信息,并不代表本网赞同其观点和对其真实性负责。

如有侵权、违反国家法律政策行为,请联系我们,我们会第一时间及时清除和处理!

举报反馈邮箱:[email protected]

快速回复 返回顶部 返回列表