找回密码

蓝光电影网

查看: 460|回复: 2

[喜剧] 电话情缘/宝莱坞之热线你和我 The.Other.End.Of.The.Line.2008.1080p.BluRay.x264.PROPER-PussyFoot 8.74GB

[复制链接]
蓝光币
886
发表于 2020-1-28 22:54:31 | 显示全部楼层 |阅读模式
电话情缘/宝莱坞之热线你和我 The.Other.End.Of.The.Line.2008.1080p.BluRay.x264.PROPER-PussyFoot 8.74GB-1.png

译  名 电话情缘 / 宝莱坞之热线你和我(台)
片  名 The Other End of the Line
年  代 2008
产  地 美国
类  别 笑剧 / 恋爱
语  言 英语
上映日期 2008-10-31
IMDb评分  6.2/10 from 5584 users
IMDb链接  https://www.imdb.com/title/tt1049405
豆瓣评分 6.7/10 from 1527 users
豆瓣链接 https://movie.douban.com/subject/3012019/
片  长 USA: 106 分钟
导  演 James Dodson
编  剧 Tracey Jackson
主  演 Jesse Metcalfe
       Shriya
       Larry Miller


标  签 恋爱 | 美国 | 印度 | 美国电影 | 笑剧 | 浪漫 | 电话情缘 | 2009

简  介  

  普拉亚(Shriya Saran 饰)是一个土生土长的印度女孩,长大在一个死板守旧的典型印度家庭中,做着一份信誉卡公司电话接线员的平平工作。作为一个印度女孩,美国自在开放的风格和多元化的生活对普拉亚有着致命的吸引力,她不但练就了一口流利标准的英语,甚至捏造了一个子虚的身份,她告诉每一个打电话给她的客户,说自己来自旧金山的珍妮弗。
  一次偶然中,普拉亚接到了一个名叫格兰杰(杰西·麦特卡尔菲 Jesse Metcalfe 饰)的汉子的电话,两人聊得非常投机,甚至约定了碰头。为了保持假话,普拉亚搭上了前往美国的飞机。普拉亚的离去让她的父亲雷蒙(阿努潘·凯尔 Anupam Kher 饰)怒喜洋洋,本来,他早已经在印度帮普拉亚找到了满足的夫婿。为了追回叛逆的女儿,雷蒙一家人居然也踏上了美国的地盘。
  1. Video
  2. ID                                       : 1
  3. Format                                   : AVC
  4. Format/Info                              : Advanced Video Codec
  5. Format profile                           : [email protected]
  6. Format settings                          : CABAC / 5 Ref Frames
  7. Format settings, CABAC                   : Yes
  8. Format settings, Reference frames        : 5 frames
  9. Codec ID                                 : V_MPEG4/ISO/AVC
  10. Duration                                 : 1 h 41 min
  11. Bit rate                                 : 10.9 Mb/s
  12. Width                                    : 1 920 pixels
  13. Height                                   : 816 pixels
  14. Display aspect ratio                     : 2.35:1
  15. Frame rate mode                          : Constant
  16. Frame rate                               : 25.000 FPS
  17. Color space                              : YUV
  18. Chroma subsampling                       : 4:2:0
  19. Bit depth                                : 8 bits
  20. Scan type                                : Progressive
  21. Bits/(Pixel*Frame)                       : 0.277
  22. Stream size                              : 7.67 GiB (88%)
  23. Writing library                          : x264 core 158 r2988 7817004
  24. Encoding settings                        : cabac=1 / ref=5 / deblock=1:-2:-2 / analyse=0x3:0x113 / me=umh / subme=8 / psy=1 / psy_rd=1.00:0.00 / mixed_ref=1 / me_range=16 / chroma_me=1 / trellis=2 / 8x8dct=1 / cqm=0 / deadzone=21,11 / fast_pskip=0 / chroma_qp_offset=-2 / threads=25 / lookahead_threads=4 / sliced_threads=0 / nr=0 / decimate=1 / interlaced=0 / bluray_compat=0 / constrained_intra=0 / bframes=3 / b_pyramid=2 / b_adapt=2 / b_bias=0 / direct=3 / weightb=1 / open_gop=0 / weightp=2 / keyint=240 / keyint_min=24 / scenecut=40 / intra_refresh=0 / rc_lookahead=50 / rc=2pass / mbtree=1 / bitrate=10866 / ratetol=1.0 / qcomp=0.60 / qpmin=0 / qpmax=69 / qpstep=4 / cplxblur=20.0 / qblur=0.5 / ip_ratio=1.40 / aq=1:1.00
  25. Default                                  : Yes
  26. Forced                                   : No

  27. Audio
  28. ID                                       : 2
  29. Format                                   : DTS
  30. Format/Info                              : Digital Theater Systems
  31. Codec ID                                 : A_DTS
  32. Duration                                 : 1 h 41 min
  33. Bit rate mode                            : Constant
  34. Bit rate                                 : 1 509 kb/s
  35. Channel(s)                               : 6 channels
  36. Channel layout                           : C L R Ls Rs LFE
  37. Sampling rate                            : 48.0 kHz
  38. Frame rate                               : 93.750 FPS (512 SPF)
  39. Bit depth                                : 24 bits
  40. Compression mode                         : Lossy
  41. Stream size                              : 1.07 GiB (12%)
  42. Language                                 : English
  43. Default                                  : Yes
  44. Forced                                   : No

  45. Menu
  46. 00:00:00.000                             : :Chapter 01
  47. 00:07:07.160                             : :Chapter 02
  48. 00:13:44.760                             : :Chapter 03
  49. 00:20:36.640                             : :Chapter 04
  50. 00:26:59.640                             : :Chapter 05
  51. 00:34:18.920                             : :Chapter 06
  52. 00:40:40.280                             : :Chapter 07
  53. 00:46:43.840                             : :Chapter 08
  54. 00:53:03.120                             : :Chapter 09
  55. 00:58:53.680                             : :Chapter 10
  56. 01:04:22.080                             : :Chapter 11
  57. 01:12:03.880                             : :Chapter 12
  58. 01:18:24.720                             : :Chapter 13
  59. 01:23:43.080                             : :Chapter 14
  60. 01:32:02.160                             : :Chapter 15
  61. 01:36:53.200                             : :Chapter 16
复制代码

电话情缘/宝莱坞之热线你和我 The.Other.End.Of.The.Line.2008.1080p.BluRay.x264.PROPER-PussyFoot 8.74GB-2.png






回复

使用道具 举报

懒得打字嘛,点击右侧快捷回复 【右侧内容,后台自定义】
您需要登录后才可以回帖 登录 | 立即加入

本版积分规则

Archiver|小黑屋| 蓝光电影网 |网站地图

Copyright © 2021 Comsenz Inc. Powered by 蓝光电影网

蓝光电影网

本站内容由用户自主分享和转载自互联网,转载目的在于传递更多信息,并不代表本网赞同其观点和对其真实性负责。

如有侵权、违反国家法律政策行为,请联系我们,我们会第一时间及时清除和处理!

举报反馈邮箱:[email protected]

快速回复 返回顶部 返回列表