找回密码

蓝光电影网

查看: 5132|回复: 3

[战争] 军团 The.Legions.2019.1080p.BluRay.x264-SPRiNTER 12.02GB

[复制链接]
蓝光币
886
发表于 2020-1-28 23:00:05 | 显示全部楼层 |阅读模式
军团 The.Legions.2019.1080p.BluRay.x264-SPRiNTER 12.02GB-1.png

译  名 军团
片  名 Legiony
年  代 2019
产  地 波兰
类  别 历史 / 战争
语  言 波兰语
上映日期 2019-09-20(波兰)
IMDb评分  5.1/10 from 126 users
IMDb链接  https://www.imdb.com/title/tt9546624
豆瓣评分 0/10 from 0 users
豆瓣链接 https://movie.douban.com/subject/34806917/
片  长 120分钟
导  演 达留什·加耶夫斯基 Dariusz Gajewski
编  剧 达留什·加耶夫斯基 Dariusz Gajewski / Michal Godzic
主  演 维克托利亚·沃兰斯卡 Wiktoria Wolanska
       赛巴斯汀·法比杰斯基 Sebastian Fabijanski
       巴托茨·戈尔纳 Bartosz Gelner
       安东尼·帕利基 Antoni Pawlicki
       马切伊·马杰斯基 Maciej Marczewski
       让·弗里兹 Jan Frycz
       波利斯·席克 Borys Szyc
       莫迪斯特·鲁辛斯基 Modest Rucinski
       米罗斯洛·巴卡 Miroslaw Baka


标  签 波兰 | 达留什·加耶夫斯基 | 波兰电影 | 一战 | 2019

简  介  

  报告一战时代,沙俄军队的逃兵克泽加了同友邦的波兰军团,并熟悉了在女子情报队退役的妻子。影片描写了1914-1916年间波兰军团履历的严重历史事务,除了男女配角是虚拟人物外,片中其他配角如波兰国王、毕苏斯基准将等的活动都取自历史实在履历。
  1. Video
  2. ID                                       : 1
  3. Format                                   : AVC
  4. Format/Info                              : Advanced Video Codec
  5. Format profile                           : [email protected]
  6. Format settings                          : CABAC / 5 Ref Frames
  7. Format settings, CABAC                   : Yes
  8. Format settings, Reference frames        : 5 frames
  9. Codec ID                                 : V_MPEG4/ISO/AVC
  10. Duration                                 : 2 h 19 min
  11. Bit rate                                 : 10.8 Mb/s
  12. Width                                    : 1 920 pixels
  13. Height                                   : 808 pixels
  14. Display aspect ratio                     : 2.40:1
  15. Frame rate mode                          : Constant
  16. Frame rate                               : 24.000 FPS
  17. Color space                              : YUV
  18. Chroma subsampling                       : 4:2:0
  19. Bit depth                                : 8 bits
  20. Scan type                                : Progressive
  21. Bits/(Pixel*Frame)                       : 0.291
  22. Stream size                              : 10.5 GiB (88%)
  23. Writing library                          : x264 core 159 r2991 1771b55
  24. Encoding settings                        : cabac=1 / ref=5 / deblock=1:-3:-3 / analyse=0x3:0x133 / me=umh / subme=9 / psy=1 / psy_rd=1.00:0.00 / mixed_ref=1 / me_range=16 / chroma_me=1 / trellis=2 / 8x8dct=1 / cqm=0 / deadzone=21,11 / fast_pskip=0 / chroma_qp_offset=-2 / threads=25 / lookahead_threads=2 / sliced_threads=0 / nr=0 / decimate=1 / interlaced=0 / bluray_compat=0 / constrained_intra=0 / bframes=3 / b_pyramid=2 / b_adapt=2 / b_bias=0 / direct=3 / weightb=1 / open_gop=0 / weightp=2 / keyint=250 / keyint_min=24 / scenecut=40 / intra_refresh=0 / rc_lookahead=60 / rc=2pass / mbtree=1 / bitrate=10828 / ratetol=1.0 / qcomp=0.60 / qpmin=10 / qpmax=69 / qpstep=4 / cplxblur=20.0 / qblur=0.5 / ip_ratio=1.40 / aq=1:0.70
  25. Default                                  : Yes
  26. Forced                                   : No

  27. Audio
  28. ID                                       : 2
  29. Format                                   : DTS
  30. Format/Info                              : Digital Theater Systems
  31. Codec ID                                 : A_DTS
  32. Duration                                 : 2 h 19 min
  33. Bit rate mode                            : Constant
  34. Bit rate                                 : 1 509 kb/s
  35. Channel(s)                               : 6 channels
  36. Channel layout                           : C L R Ls Rs LFE
  37. Sampling rate                            : 48.0 kHz
  38. Frame rate                               : 93.750 FPS (512 SPF)
  39. Bit depth                                : 24 bits
  40. Compression mode                         : Lossy
  41. Stream size                              : 1.47 GiB (12%)
  42. Title                                    : Polish DTS 1509 kbps
  43. Language                                 : Polish
  44. Default                                  : Yes
  45. Forced                                   : No

  46. Text
  47. ID                                       : 3
  48. Format                                   : UTF-8
  49. Codec ID                                 : S_TEXT/UTF8
  50. Codec ID/Info                            : UTF-8 Plain Text
  51. Duration                                 : 2 h 16 min
  52. Bit rate                                 : 15 b/s
  53. Count of elements                        : 677
  54. Stream size                              : 15.7 KiB (0%)
  55. Title                                    : English
  56. Language                                 : English
  57. Default                                  : Yes
  58. Forced                                   : No

  59. Menu
  60. 00:00:00.000                             : :
  61. 00:11:02.541                             : :
  62. 00:22:07.500                             : :
  63. 00:30:26.083                             : :
  64. 00:42:11.291                             : :
  65. 00:50:52.458                             : :
  66. 01:02:18.416                             : :
  67. 01:13:01.791                             : :
  68. 01:26:22.291                             : :
  69. 01:36:33.375                             : :
  70. 01:48:18.166                             : :
  71. 02:07:46.458                             : :
复制代码

军团 The.Legions.2019.1080p.BluRay.x264-SPRiNTER 12.02GB-2.png






回复

使用道具 举报

蓝光币
412
发表于 2020-8-28 07:43:49 | 显示全部楼层
谢谢分享。
回复

使用道具 举报

蓝光币
1
发表于 2021-10-6 23:26:14 | 显示全部楼层
谢谢分享。下载看看
回复 支持 反对

使用道具 举报

蓝光币
1
发表于 2022-5-11 14:41:08 | 显示全部楼层

谢谢分享。下载看看
回复 支持 反对

使用道具 举报

懒得打字嘛,点击右侧快捷回复 【右侧内容,后台自定义】
您需要登录后才可以回帖 登录 | 立即加入

本版积分规则

Archiver|小黑屋| 蓝光电影网 |网站地图

Copyright © 2021 Comsenz Inc. Powered by 蓝光电影网

蓝光电影网

本站内容由用户自主分享和转载自互联网,转载目的在于传递更多信息,并不代表本网赞同其观点和对其真实性负责。

如有侵权、违反国家法律政策行为,请联系我们,我们会第一时间及时清除和处理!

举报反馈邮箱:[email protected]

快速回复 返回顶部 返回列表