找回密码

蓝光电影网

查看: 1005|回复: 4

[喜剧] 賭俠II上海灘賭聖 God.of.Gamblers.III.Back.to.Shanghai.1991.CHINESE.1080p.BluRay.x264.DD5.1-MT 8.05GB

[复制链接]
蓝光币
894
发表于 2020-1-28 23:03:45 | 显示全部楼层 |阅读模式
賭俠II上海灘賭聖 God.of.Gamblers.III.Back.to.Shanghai.1991.CHINESE.1080p.BluRay.x264.DD5.1-MT 8.05GB-1.png

译  名 赌侠2:上海滩赌圣 / God of Gamblers Part III: Back to Shanghai / 赌侠2之上海滩赌圣
片  名 賭俠II上海灘賭聖
年  代 1991
产  地 中国香港
类  别 笑剧 / 奇异
语  言 粤语 / 英语 / 汉语普通话 / 法语
上映日期 1991-08-21(中国香港)
IMDb评分  6.7/10 from 1823 users
IMDb链接  https://www.imdb.com/title/tt0101783
豆瓣评分 7.5/10 from 84968 users
豆瓣链接 https://movie.douban.com/subject/1302977/
片  长 116分钟
导  演 王晶 Jing Wong
编  剧 王晶 Jing Wong
主  演 周星驰 Stephen Chow
       巩俐 Li Gong
       吕良伟 Ray Lui
       向华强 Charles Heung
       吴君如 Sandra Ng
       吴孟达 Man Tat Ng
       黄韵诗 Wan-Si Wong
       龙方 Fong Lung
       张敏 Sharla Cheung
       方季韦 Sophia Fang


标  签 周星驰 | 笑剧 | 香港 | 香港电影 | 王晶 | 吴孟达 | 1991 | 电影

简  介  

  阿星(周星驰 饰)由赌神处学成归来,恰逢不宁愿失利的雄师调集合南海五大高手复仇,虽有龙五(向华强 饰)互助,但阿星与三叔(吴孟达 饰)仍被雄师等人发功送至1937年的上海……
  阿星与三叔失散后意外击杀谋害许文强之凶手,得以结识丁力(吕良伟 饰),自此与祖父周大福(吴孟达 饰)留在丁力身旁,丁力女友如仙(巩俐 饰)令阿星魂牵梦绕,却不知她是自己所中意女孩如梦(巩俐 饰)的孪生姐姐。川岛芳子意欲控制上海,因而收罗雄师等人频频向丁力举事,并约定最初以赌局决分高低,阿星由日本人手中涉险逃走,终究遇上赌局,而决议这场赌局的关键,却是一个名叫“今晚打山君”的奥秘人物……
  1. Video
  2. ID                                       : 1
  3. Format                                   : AVC
  4. Format/Info                              : Advanced Video Codec
  5. Format profile                           : [email protected]
  6. Format settings                          : CABAC / 4 Ref Frames
  7. Format settings, CABAC                   : Yes
  8. Format settings, Reference frames        : 4 frames
  9. Codec ID                                 : V_MPEG4/ISO/AVC
  10. Duration                                 : 1 h 56 min
  11. Bit rate                                 : 9 232 kb/s
  12. Width                                    : 1 920 pixels
  13. Height                                   : 1 080 pixels
  14. Display aspect ratio                     : 16:9
  15. Frame rate mode                          : Constant
  16. Frame rate                               : 24.000 FPS
  17. Color space                              : YUV
  18. Chroma subsampling                       : 4:2:0
  19. Bit depth                                : 8 bits
  20. Scan type                                : Progressive
  21. Bits/(Pixel*Frame)                       : 0.186
  22. Stream size                              : 7.52 GiB (93%)
  23. Writing library                          : x264 core 142 r2431+42 c69a006 tMod [[email protected]:2:0 X86_64]
  24. Encoding settings                        : cabac=1 / ref=4 / deblock=1:-3:-3 / analyse=0x3:0x113 / me=umh / subme=11 / psy=1 / fade_compensate=0.00 / psy_rd=1.05:0.10 / mixed_ref=1 / me_range=48 / chroma_me=1 / trellis=2 / 8x8dct=1 / cqm=0 / deadzone=21,11 / fast_pskip=0 / chroma_qp_offset=-2 / threads=6 / lookahead_threads=1 / sliced_threads=0 / nr=0 / decimate=1 / interlaced=0 / bluray_compat=0 / constrained_intra=0 / fgo=0 / bframes=6 / b_pyramid=2 / b_adapt=1 / b_bias=0 / direct=3 / weightb=1 / open_gop=0 / weightp=2 / keyint=250 / keyint_min=24 / scenecut=40 / intra_refresh=0 / rc_lookahead=40 / rc=crf / mbtree=0 / crf=18.0000 / qcomp=0.70 / qpmin=0:0:0 / qpmax=69:69:69 / qpstep=4 / vbv_maxrate=40000 / vbv_bufsize=30000 / crf_max=0.0 / nal_hrd=none / filler=0 / ip_ratio=1.40 / pb_ratio=1.30 / aq=3:0.80 / aq-sensitivity=10.00 / aq-factor=1.00:1.00:1.00 / aq2=0 / aq3=0
  25. Language                                 : English
  26. Default                                  : Yes
  27. Forced                                   : No

  28. Audio
  29. ID                                       : 2
  30. Format                                   : AC-3
  31. Format/Info                              : Audio Coding 3
  32. Commercial name                          : Dolby Digital
  33. Codec ID                                 : A_AC3
  34. Duration                                 : 1 h 56 min
  35. Bit rate mode                            : Constant
  36. Bit rate                                 : 640 kb/s
  37. Channel(s)                               : 6 channels
  38. Channel layout                           : L R C LFE Ls Rs
  39. Sampling rate                            : 48.0 kHz
  40. Frame rate                               : 31.250 FPS (1536 SPF)
  41. Bit depth                                : 16 bits
  42. Compression mode                         : Lossy
  43. Stream size                              : 534 MiB (6%)
  44. Language                                 : Chinese
  45. Service kind                             : Complete Main
  46. Default                                  : Yes
  47. Forced                                   : No

  48. Text #1
  49. ID                                       : 3
  50. Format                                   : UTF-8
  51. Codec ID                                 : S_TEXT/UTF8
  52. Codec ID/Info                            : UTF-8 Plain Text
  53. Duration                                 : 1 h 55 min
  54. Bit rate                                 : 55 b/s
  55. Count of elements                        : 1948
  56. Stream size                              : 46.6 KiB (0%)
  57. Language                                 : English
  58. Default                                  : Yes
  59. Forced                                   : No

  60. Text #2
  61. ID                                       : 4
  62. Format                                   : PGS
  63. Muxing mode                              : zlib
  64. Codec ID                                 : S_HDMV/PGS
  65. Codec ID/Info                            : Picture based subtitle format used on BDs/HD-DVDs
  66. Duration                                 : 1 h 55 min
  67. Bit rate                                 : 44.1 kb/s
  68. Count of elements                        : 3019
  69. Stream size                              : 36.3 MiB (0%)
  70. Language                                 : English
  71. Default                                  : No
  72. Forced                                   : No
复制代码

賭俠II上海灘賭聖 God.of.Gamblers.III.Back.to.Shanghai.1991.CHINESE.1080p.BluRay.x264.DD5.1-MT 8.05GB-2.png 賭俠II上海灘賭聖 God.of.Gamblers.III.Back.to.Shanghai.1991.CHINESE.1080p.BluRay.x264.DD5.1-MT 8.05GB-3.png 賭俠II上海灘賭聖 God.of.Gamblers.III.Back.to.Shanghai.1991.CHINESE.1080p.BluRay.x264.DD5.1-MT 8.05GB-4.png






回复

使用道具 举报

蓝光币
864
发表于 2020-1-29 09:27:14 | 显示全部楼层
谢谢楼主无私分享。
回复 支持 反对

使用道具 举报

蓝光币
44
发表于 2020-1-30 13:04:50 | 显示全部楼层
谢谢分享,支持一下
回复 支持 反对

使用道具 举报

蓝光币
136
发表于 2020-1-31 07:39:10 | 显示全部楼层
好多不要钱的电影,感谢楼主,再次感谢
回复 支持 反对

使用道具 举报

蓝光币
115
发表于 2020-2-1 21:11:49 | 显示全部楼层

楼主太厉害了!楼主,电影应该很好看我觉得蓝光电影网真是个好地方!
回复 支持 反对

使用道具 举报

懒得打字嘛,点击右侧快捷回复 【右侧内容,后台自定义】
您需要登录后才可以回帖 登录 | 立即加入

本版积分规则

Archiver|小黑屋| 蓝光电影网 |网站地图

Copyright © 2021 Comsenz Inc. Powered by 蓝光电影网

蓝光电影网

本站内容由用户自主分享和转载自互联网,转载目的在于传递更多信息,并不代表本网赞同其观点和对其真实性负责。

如有侵权、违反国家法律政策行为,请联系我们,我们会第一时间及时清除和处理!

举报反馈邮箱:[email protected]

快速回复 返回顶部 返回列表