找回密码

蓝光电影网

查看: 1129|回复: 2

[爱情] 一見鐘情 Sausalito.2000.CHINESE.1080p.BluRay.x264.DTS-FGT 8.87GB

[复制链接]
蓝光币
1082
发表于 2020-1-28 23:28:19 | 显示全部楼层 |阅读模式
一見鐘情 Sausalito.2000.CHINESE.1080p.BluRay.x264.DTS-FGT 8.87GB-1.png

译  名 一见钟情 / Sausalito
片  名 一見鐘情
年  代 2000
产  地 中国香港 / 美国
类  别 恋爱
语  言 粤语 / 英语
上映日期 2000-04-20(中国香港)
IMDb评分  5.7/10 from 228 users
IMDb链接  https://www.imdb.com/title/tt0240880
豆瓣评分 7.3/10 from 3934 users
豆瓣链接 https://movie.douban.com/subject/1307144/
片  长 98分钟
导  演 刘伟强
编  剧 陈十三
主  演 张曼玉
       拂晓
       葛民辉
       吴耀汉
       关秀媚
       周嘉玲
       吴嘉龙


标  签 张曼玉 | 拂晓 | 香港 | 香港电影 | 恋爱 | 刘伟强 | 2000 | 一见钟情

简  介  

  被丈夫抛弃的Ellen(张曼玉)与放荡不羁的收集公司开办人Mike(拂晓饰)在美国旧金山一见钟情,起头了一段恋爱攻防战争。
  女人的天性使Ellen不自觉地侵入了Mike的小我空间,令不羁的Mike发生抵抗情感,可是也终被Ellen的无条件支出感动,两人携手一路生活。但是在豪情和温馨事后,由于Mike的公司出现经济窘境,两人起头不竭的争持,表暴露各自的天下观有庞大差别的究竟。在极端失意下,Ellen 提出分手,但像香港城的沦亡玉成了白流苏和范柳原一样,一年后旧金山发生的大地震,为他们的重新牵手供给了契机。
  1. Video
  2. ID                                       : 1
  3. Format                                   : AVC
  4. Format/Info                              : Advanced Video Codec
  5. Format profile                           : [email protected]
  6. Format settings                          : CABAC / 4 Ref Frames
  7. Format settings, CABAC                   : Yes
  8. Format settings, Reference frames        : 4 frames
  9. Codec ID                                 : V_MPEG4/ISO/AVC
  10. Duration                                 : 1 h 37 min
  11. Bit rate                                 : 11.5 Mb/s
  12. Width                                    : 1 920 pixels
  13. Height                                   : 1 080 pixels
  14. Display aspect ratio                     : 16:9
  15. Frame rate mode                          : Constant
  16. Frame rate                               : 24.000 FPS
  17. Color space                              : YUV
  18. Chroma subsampling                       : 4:2:0
  19. Bit depth                                : 8 bits
  20. Scan type                                : Progressive
  21. Bits/(Pixel*Frame)                       : 0.231
  22. Stream size                              : 7.84 GiB (88%)
  23. Title                                    : Sausalito.2000.CHINESE.1080p.BluRay.x264.DTS-FGT
  24. Writing library                          : x264 core 148 r2795M aaa9aa8
  25. Encoding settings                        : cabac=1 / ref=4 / deblock=1:-2:-2 / analyse=0x3:0x113 / me=umh / subme=9 / psy=1 / psy_rd=1.00:0.15 / mixed_ref=1 / me_range=16 / chroma_me=1 / trellis=2 / 8x8dct=1 / cqm=0 / deadzone=21,11 / fast_pskip=1 / chroma_qp_offset=-3 / threads=24 / lookahead_threads=3 / sliced_threads=0 / nr=0 / decimate=1 / interlaced=0 / bluray_compat=0 / constrained_intra=0 / bframes=3 / b_pyramid=2 / b_adapt=1 / b_bias=0 / direct=3 / weightb=1 / open_gop=0 / weightp=2 / keyint=250 / keyint_min=25 / scenecut=40 / intra_refresh=0 / rc_lookahead=50 / rc=2pass / mbtree=1 / bitrate=11500 / ratetol=1.0 / qcomp=0.60 / qpmin=0 / qpmax=69 / qpstep=4 / cplxblur=20.0 / qblur=0.5 / vbv_maxrate=31250 / vbv_bufsize=31250 / nal_hrd=none / filler=0 / ip_ratio=1.40 / aq=1:1.00
  26. Language                                 : Chinese
  27. Default                                  : Yes
  28. Forced                                   : No

  29. Audio
  30. ID                                       : 2
  31. Format                                   : DTS
  32. Format/Info                              : Digital Theater Systems
  33. Codec ID                                 : A_DTS
  34. Duration                                 : 1 h 37 min
  35. Bit rate mode                            : Constant
  36. Bit rate                                 : 1 509 kb/s
  37. Channel(s)                               : 6 channels
  38. Channel layout                           : C L R Ls Rs LFE
  39. Sampling rate                            : 48.0 kHz
  40. Frame rate                               : 93.750 FPS (512 SPF)
  41. Bit depth                                : 16 bits
  42. Compression mode                         : Lossy
  43. Stream size                              : 1.03 GiB (12%)
  44. Title                                    : Sausalito.2000.CHINESE.1080p.BluRay.x264.DTS-FGT
  45. Language                                 : Chinese
  46. Default                                  : Yes
  47. Forced                                   : No

  48. Text
  49. ID                                       : 3
  50. Format                                   : UTF-8
  51. Codec ID                                 : S_TEXT/UTF8
  52. Codec ID/Info                            : UTF-8 Plain Text
  53. Duration                                 : 1 h 34 min
  54. Bit rate                                 : 41 b/s
  55. Count of elements                        : 1219
  56. Stream size                              : 28.8 KiB (0%)
  57. Language                                 : English
  58. Default                                  : Yes
  59. Forced                                   : No

  60. Menu
  61. 00:00:00.000                             : en:00:00:00.000
  62. 00:07:50.833                             : en:00:07:50.833
  63. 00:16:27.042                             : en:00:16:27.042
  64. 00:25:14.375                             : en:00:25:14.375
  65. 00:30:47.500                             : en:00:30:47.500
  66. 00:41:04.125                             : en:00:41:04.125
  67. 00:49:27.167                             : en:00:49:27.167
  68. 00:56:13.958                             : en:00:56:13.958
  69. 01:03:40.500                             : en:01:03:40.500
  70. 01:13:25.792                             : en:01:13:25.792
  71. 01:19:12.125                             : en:01:19:12.125
  72. 01:27:02.542                             : en:01:27:02.542
复制代码

一見鐘情 Sausalito.2000.CHINESE.1080p.BluRay.x264.DTS-FGT 8.87GB-2.png 一見鐘情 Sausalito.2000.CHINESE.1080p.BluRay.x264.DTS-FGT 8.87GB-3.png 一見鐘情 Sausalito.2000.CHINESE.1080p.BluRay.x264.DTS-FGT 8.87GB-1.png






回复

使用道具 举报

蓝光币
649
发表于 2020-1-29 09:21:58 | 显示全部楼层
谢谢楼主无私分享。
回复 支持 反对

使用道具 举报

蓝光币
2187
发表于 2020-6-27 23:44:24 | 显示全部楼层
应该要感谢楼主!
回复 支持 反对

使用道具 举报

懒得打字嘛,点击右侧快捷回复 【右侧内容,后台自定义】
您需要登录后才可以回帖 登录 | 立即加入

本版积分规则

Archiver|小黑屋| 蓝光电影网 |网站地图

Copyright © 2021 Comsenz Inc. Powered by 蓝光电影网

蓝光电影网

本站内容由用户自主分享和转载自互联网,转载目的在于传递更多信息,并不代表本网赞同其观点和对其真实性负责。

如有侵权、违反国家法律政策行为,请联系我们,我们会第一时间及时清除和处理!

举报反馈邮箱:[email protected]

快速回复 返回顶部 返回列表