找回密码

蓝光电影网

查看: 1501|回复: 6

[喜剧] 賭俠 God.Of.Gamblers.II.1991.CHINESE.1080p.BluRay.x264.DTS-FGT 9.52GB

[复制链接]
蓝光币
1020
发表于 2020-1-28 23:40:28 | 显示全部楼层 |阅读模式
賭俠 God.Of.Gamblers.II.1991.CHINESE.1080p.BluRay.x264.DTS-FGT 9.52GB-1.png

译  名 赌侠 / God of Gamblers II
片  名 賭俠
年  代 1990
产  地 中国香港
类  别 剧情 / 笑剧
语  言 粤语
上映日期 1990-12-13(中国香港)
IMDb评分  6.9/10 from 2377 users
IMDb链接  https://www.imdb.com/title/tt0101763
豆瓣评分 7.7/10 from 122269 users
豆瓣链接 https://movie.douban.com/subject/1300566/
片  长 104分钟
导  演 王晶 Jing Wong
编  剧 王晶 Jing Wong
主  演 刘德华 Andy Lau
       周星驰 Stephen Chow
       向华强 Charles Heung
       张敏 Sharla Cheung
       吴孟达 Man Tat Ng
       陈法蓉 Monica Chan
       柯受良 Sau Leung 'Blacky' Ko
       单立文 Pal Sinn
       成奎安 Fui-On Shing


标  签 周星驰 | 笑剧 | 香港 | 刘德华 | 香港电影 | 王晶 | 搞笑 | 电影

简  介  

  得赌神终生特技的刀仔(刘德华 饰)在龙五(向华强 饰)的伴随下重出江湖,代表师父以赌技努力慈善奇迹,人称赌侠。碰到欲拜赌神为师号称赌圣的阿星(周星驰 饰)后,两人互展计谋特技,打成平手。 侯赛因(单立文 饰)为替被赌神击败的寄父陈金城报仇,在赌船上打着赌神灯号骗尽东南亚阔佬钱财,欲使赌神身败名裂,并设想挟持了龙五和阿叔(吴孟达 饰)等人,以期封住刀仔的口,不把他的实在身份揭穿。为了赌神的声誉,刀仔和阿星一用赌技绝学一用特异功用,并肩合作与侯赛因在赌桌上展开了智斗。
  1. Video
  2. ID                                       : 1
  3. Format                                   : AVC
  4. Format/Info                              : Advanced Video Codec
  5. Format profile                           : [email protected]
  6. Format settings                          : CABAC / 4 Ref Frames
  7. Format settings, CABAC                   : Yes
  8. Format settings, Reference frames        : 4 frames
  9. Codec ID                                 : V_MPEG4/ISO/AVC
  10. Duration                                 : 1 h 44 min
  11. Bit rate                                 : 11.5 Mb/s
  12. Width                                    : 1 920 pixels
  13. Height                                   : 1 080 pixels
  14. Display aspect ratio                     : 16:9
  15. Frame rate mode                          : Constant
  16. Frame rate                               : 24.000 FPS
  17. Color space                              : YUV
  18. Chroma subsampling                       : 4:2:0
  19. Bit depth                                : 8 bits
  20. Scan type                                : Progressive
  21. Bits/(Pixel*Frame)                       : 0.231
  22. Stream size                              : 8.41 GiB (88%)
  23. Title                                    : God.Of.Gamblers.II.1991.CHINESE.1080p.BluRay.x264.DTS-FGT
  24. Writing library                          : x264 core 148 r2795M aaa9aa8
  25. Encoding settings                        : cabac=1 / ref=4 / deblock=1:-2:-2 / analyse=0x3:0x113 / me=umh / subme=9 / psy=1 / psy_rd=1.00:0.15 / mixed_ref=1 / me_range=16 / chroma_me=1 / trellis=2 / 8x8dct=1 / cqm=0 / deadzone=21,11 / fast_pskip=1 / chroma_qp_offset=-3 / threads=24 / lookahead_threads=3 / sliced_threads=0 / nr=0 / decimate=1 / interlaced=0 / bluray_compat=0 / constrained_intra=0 / bframes=3 / b_pyramid=2 / b_adapt=1 / b_bias=0 / direct=3 / weightb=1 / open_gop=0 / weightp=2 / keyint=250 / keyint_min=25 / scenecut=40 / intra_refresh=0 / rc_lookahead=50 / rc=2pass / mbtree=1 / bitrate=11500 / ratetol=1.0 / qcomp=0.60 / qpmin=0 / qpmax=69 / qpstep=4 / cplxblur=20.0 / qblur=0.5 / vbv_maxrate=31250 / vbv_bufsize=31250 / nal_hrd=none / filler=0 / ip_ratio=1.40 / aq=1:1.00
  26. Language                                 : Chinese
  27. Default                                  : Yes
  28. Forced                                   : No

  29. Audio
  30. ID                                       : 2
  31. Format                                   : DTS
  32. Format/Info                              : Digital Theater Systems
  33. Codec ID                                 : A_DTS
  34. Duration                                 : 1 h 44 min
  35. Bit rate mode                            : Constant
  36. Bit rate                                 : 1 509 kb/s
  37. Channel(s)                               : 6 channels
  38. Channel layout                           : C L R Ls Rs LFE
  39. Sampling rate                            : 48.0 kHz
  40. Frame rate                               : 93.750 FPS (512 SPF)
  41. Bit depth                                : 16 bits
  42. Compression mode                         : Lossy
  43. Stream size                              : 1.10 GiB (12%)
  44. Title                                    : God.Of.Gamblers.II.1991.CHINESE.1080p.BluRay.x264.DTS-FGT
  45. Language                                 : Chinese
  46. Default                                  : Yes
  47. Forced                                   : No

  48. Text
  49. ID                                       : 3
  50. Format                                   : UTF-8
  51. Codec ID                                 : S_TEXT/UTF8
  52. Codec ID/Info                            : UTF-8 Plain Text
  53. Duration                                 : 1 h 42 min
  54. Bit rate                                 : 59 b/s
  55. Count of elements                        : 1523
  56. Stream size                              : 44.9 KiB (0%)
  57. Language                                 : English
  58. Default                                  : Yes
  59. Forced                                   : No

  60. Menu
  61. 00:00:00.000                             : en:Chapter 01
  62. 00:10:23.542                             : en:Chapter 02
  63. 00:16:39.875                             : en:Chapter 03
  64. 00:25:55.292                             : en:Chapter 04
  65. 00:36:13.583                             : en:Chapter 05
  66. 00:44:32.208                             : en:Chapter 06
  67. 00:50:17.250                             : en:Chapter 07
  68. 01:00:55.000                             : en:Chapter 08
  69. 01:12:10.208                             : en:Chapter 09
  70. 01:17:53.667                             : en:Chapter 10
  71. 01:29:14.208                             : en:Chapter 11
  72. 01:37:41.417                             : en:Chapter 12
复制代码

賭俠 God.Of.Gamblers.II.1991.CHINESE.1080p.BluRay.x264.DTS-FGT 9.52GB-2.png 賭俠 God.Of.Gamblers.II.1991.CHINESE.1080p.BluRay.x264.DTS-FGT 9.52GB-3.png 賭俠 God.Of.Gamblers.II.1991.CHINESE.1080p.BluRay.x264.DTS-FGT 9.52GB-1.png






回复

使用道具 举报

蓝光币
826
发表于 2020-1-28 23:48:26 | 显示全部楼层
楼主发贴辛苦了,谢谢楼主分享!我觉得蓝光电影网是注册对了!
回复 支持 反对

使用道具 举报

蓝光币
768
发表于 2020-1-29 09:28:37 | 显示全部楼层
谢谢楼主无私分享。
回复 支持 反对

使用道具 举报

蓝光币
115
发表于 2020-2-1 21:06:36 | 显示全部楼层
楼主发贴辛苦了,谢谢楼主分享!我觉得蓝光电影网是注册对了!
回复 支持 反对

使用道具 举报

蓝光币
58
发表于 2020-5-9 23:29:33 | 显示全部楼层

这个帖子不回对不起自己!我想我是一天也不能离开蓝光电影网
回复 支持 反对

使用道具 举报

蓝光币
58
发表于 2020-5-10 07:28:57 | 显示全部楼层

楼主,大恩不言谢了!蓝光电影网是最棒的!
回复 支持 反对

使用道具 举报

蓝光币
58
发表于 2020-5-10 21:14:14 | 显示全部楼层

其实我一直觉得楼主的品味不错!呵呵!蓝光电影网太棒了!
回复 支持 反对

使用道具 举报

懒得打字嘛,点击右侧快捷回复 【右侧内容,后台自定义】
您需要登录后才可以回帖 登录 | 立即加入

本版积分规则

Archiver|小黑屋| 蓝光电影网 |网站地图

Copyright © 2021 Comsenz Inc. Powered by 蓝光电影网

蓝光电影网

本站内容由用户自主分享和转载自互联网,转载目的在于传递更多信息,并不代表本网赞同其观点和对其真实性负责。

如有侵权、违反国家法律政策行为,请联系我们,我们会第一时间及时清除和处理!

举报反馈邮箱:[email protected]

快速回复 返回顶部 返回列表