找回密码

蓝光电影网

查看: 412|回复: 1

[剧情] 血肉兄弟 Blood.Brothers.1975.GERMAN.1080p.BluRay.x264.DD2.0-FGT 7.94GB

[复制链接]
蓝光币
886
发表于 2020-1-28 23:45:16 | 显示全部楼层 |阅读模式
血肉兄弟 Blood.Brothers.1975.GERMAN.1080p.BluRay.x264.DD2.0-FGT 7.94GB-1.png

译  名 血肉兄弟
片  名 Blutsbrüder
年  代 1975
产  地 东德
类  别 剧情 / 西部
语  言 德语
IMDb评分  5.2/10 from 181 users
IMDb链接  https://www.imdb.com/title/tt0072717
豆瓣评分 0/10 from 0 users
豆瓣链接 https://movie.douban.com/subject/26377239/
导  演 Werner W. Wallroth
主  演 Dean Reed


简  介  

  暂无相关剧情先容
  1. Video
  2. ID                                       : 1
  3. Format                                   : AVC
  4. Format/Info                              : Advanced Video Codec
  5. Format profile                           : [email protected]
  6. Format settings                          : CABAC / 4 Ref Frames
  7. Format settings, CABAC                   : Yes
  8. Format settings, Reference frames        : 4 frames
  9. Codec ID                                 : V_MPEG4/ISO/AVC
  10. Duration                                 : 1 h 35 min
  11. Bit rate                                 : 11.5 Mb/s
  12. Width                                    : 1 796 pixels
  13. Height                                   : 1 080 pixels
  14. Display aspect ratio                     : 5:3
  15. Frame rate mode                          : Constant
  16. Frame rate                               : 25.000 FPS
  17. Color space                              : YUV
  18. Chroma subsampling                       : 4:2:0
  19. Bit depth                                : 8 bits
  20. Scan type                                : Progressive
  21. Bits/(Pixel*Frame)                       : 0.237
  22. Stream size                              : 7.69 GiB (97%)
  23. Title                                    : Blood.Brothers.1975.GERMAN.1080p.BluRay.x264.DD2.0-FGT
  24. Writing library                          : x264 core 148 r2795M aaa9aa8
  25. Encoding settings                        : cabac=1 / ref=4 / deblock=1:-2:-2 / analyse=0x3:0x113 / me=umh / subme=9 / psy=1 / psy_rd=1.00:0.15 / mixed_ref=1 / me_range=16 / chroma_me=1 / trellis=2 / 8x8dct=1 / cqm=0 / deadzone=21,11 / fast_pskip=1 / chroma_qp_offset=-3 / threads=24 / lookahead_threads=3 / sliced_threads=0 / nr=0 / decimate=1 / interlaced=0 / bluray_compat=0 / constrained_intra=0 / bframes=3 / b_pyramid=2 / b_adapt=1 / b_bias=0 / direct=3 / weightb=1 / open_gop=0 / weightp=2 / keyint=250 / keyint_min=25 / scenecut=40 / intra_refresh=0 / rc_lookahead=50 / rc=2pass / mbtree=1 / bitrate=11500 / ratetol=1.0 / qcomp=0.60 / qpmin=0 / qpmax=69 / qpstep=4 / cplxblur=20.0 / qblur=0.5 / vbv_maxrate=31250 / vbv_bufsize=31250 / nal_hrd=none / filler=0 / ip_ratio=1.40 / aq=1:1.00
  26. Language                                 : German
  27. Default                                  : Yes
  28. Forced                                   : No

  29. Audio
  30. ID                                       : 2
  31. Format                                   : AC-3
  32. Format/Info                              : Audio Coding 3
  33. Commercial name                          : Dolby Digital
  34. Codec ID                                 : A_AC3
  35. Duration                                 : 1 h 35 min
  36. Bit rate mode                            : Constant
  37. Bit rate                                 : 384 kb/s
  38. Channel(s)                               : 2 channels
  39. Channel layout                           : L R
  40. Sampling rate                            : 48.0 kHz
  41. Frame rate                               : 31.250 FPS (1536 SPF)
  42. Bit depth                                : 16 bits
  43. Compression mode                         : Lossy
  44. Stream size                              : 262 MiB (3%)
  45. Title                                    : Blood.Brothers.1975.GERMAN.1080p.BluRay.x264.DD2.0-FGT
  46. Language                                 : German
  47. Service kind                             : Complete Main
  48. Default                                  : Yes
  49. Forced                                   : No

  50. Text
  51. ID                                       : 3
  52. Format                                   : UTF-8
  53. Codec ID                                 : S_TEXT/UTF8
  54. Codec ID/Info                            : UTF-8 Plain Text
  55. Duration                                 : 1 h 35 min
  56. Bit rate                                 : 31 b/s
  57. Count of elements                        : 675
  58. Stream size                              : 22.0 KiB (0%)
  59. Language                                 : English
  60. Default                                  : Yes
  61. Forced                                   : No

  62. Menu
  63. 00:00:00.000                             : en:Chapter 01
  64. 00:03:44.200                             : en:Chapter 02
  65. 00:10:44.640                             : en:Chapter 03
  66. 00:21:47.520                             : en:Chapter 04
  67. 00:37:59.520                             : en:Chapter 05
  68. 00:54:06.720                             : en:Chapter 06
  69. 01:09:27.440                             : en:Chapter 07
  70. 01:21:43.680                             : en:Chapter 08
  71. 01:32:45.600                             : en:Chapter 09
  72. 01:35:30.240                             : en:Chapter 10
复制代码

血肉兄弟 Blood.Brothers.1975.GERMAN.1080p.BluRay.x264.DD2.0-FGT 7.94GB-2.png 血肉兄弟 Blood.Brothers.1975.GERMAN.1080p.BluRay.x264.DD2.0-FGT 7.94GB-3.png 血肉兄弟 Blood.Brothers.1975.GERMAN.1080p.BluRay.x264.DD2.0-FGT 7.94GB-4.png






回复

使用道具 举报

懒得打字嘛,点击右侧快捷回复 【右侧内容,后台自定义】
您需要登录后才可以回帖 登录 | 立即加入

本版积分规则

Archiver|小黑屋| 蓝光电影网 |网站地图

Copyright © 2021 Comsenz Inc. Powered by 蓝光电影网

蓝光电影网

本站内容由用户自主分享和转载自互联网,转载目的在于传递更多信息,并不代表本网赞同其观点和对其真实性负责。

如有侵权、违反国家法律政策行为,请联系我们,我们会第一时间及时清除和处理!

举报反馈邮箱:[email protected]

快速回复 返回顶部 返回列表