找回密码

蓝光电影网

查看: 262|回复: 0

[剧情] 最后一棵树 The.Last.Tree.2019.720p.BluRay.x264-PSYCHD 4.37GB

[复制链接]
蓝光币
886
发表于 2020-1-28 23:50:13 | 显示全部楼层 |阅读模式
最初一棵树 The.Last.Tree.2019.720p.BluRay.x264-PSYCHD 4.37GB-1.png

译  名 最初一棵树
片  名 The Last Tree
年  代 2019
产  地 英国
类  别 剧情
上映日期 2019-01-24(圣丹斯电影节)
IMDb评分  6.8/10 from 225 users
IMDb链接  https://www.imdb.com/title/tt7802246
豆瓣评分 0/10 from 0 users
豆瓣链接 https://movie.douban.com/subject/30390745/
片  长 100分钟(圣丹斯电影节)
导  演 Shola Amoo
编  剧 Shola Amoo
主  演 尼古拉斯·平诺克 Nicholas Pinnock
       Denise Black
       Sam Adewunmi
       Gbemisola Ikumelo
       Layo-Christina Akinlude
       Demmy Ladipo
       Rasaq Kukoyi
       Jayden Jean-Paul-Denis
       John Akanmu
       Tai Golding
       Yazzmin Newell
       Ruthxjiah Bellenea
       Shaqai White
       Ibrahim Jammal
       Sofia Chilvers


标  签 英国 | 剧情 | 青春 | 自力 | 长大 | 影 | 家庭 | 伦敦黑人

简  介  

  Femi is a British boy of Nigerian heritage who, after a happy childhood in rural Lincolnshire, moves to inner London to live with his mum. Struggling with the unfamiliar culture and values of his new environment, teenage Femi has to figure out which path to adulthood he wants to take.

获奖情况  

  第35届圣丹斯电影节(2019)
  评审团大奖 天下电影单元剧情片(提名) Shola Amoo

  第22届英国自力电影奖(2019)
  最好男配角(提名) 山姆·阿德文米
  最好女配角 露丝嘉·贝琳娜
  最好新演员 山姆·阿德文米
  最好选角(提名)
  1. Video
  2. ID                                       : 1
  3. Format                                   : AVC
  4. Format/Info                              : Advanced Video Codec
  5. Format profile                           : [email protected]
  6. Format settings                          : CABAC / 5 Ref Frames
  7. Format settings, CABAC                   : Yes
  8. Format settings, Reference frames        : 5 frames
  9. Codec ID                                 : V_MPEG4/ISO/AVC
  10. Duration                                 : 1 h 38 min
  11. Bit rate                                 : 5 578 kb/s
  12. Width                                    : 1 280 pixels
  13. Height                                   : 536 pixels
  14. Display aspect ratio                     : 2.40:1
  15. Frame rate mode                          : Constant
  16. Frame rate                               : 24.000 FPS
  17. Color space                              : YUV
  18. Chroma subsampling                       : 4:2:0
  19. Bit depth                                : 8 bits
  20. Scan type                                : Progressive
  21. Bits/(Pixel*Frame)                       : 0.339
  22. Stream size                              : 3.75 GiB (86%)
  23. Writing library                          : x264 core 159 r2991 1771b55
  24. Encoding settings                        : cabac=1 / ref=5 / deblock=1:-3:-3 / analyse=0x3:0x113 / me=umh / subme=8 / psy=1 / psy_rd=1.00:0.00 / mixed_ref=1 / me_range=24 / chroma_me=1 / trellis=2 / 8x8dct=1 / cqm=0 / deadzone=21,11 / fast_pskip=1 / chroma_qp_offset=-2 / threads=6 / lookahead_threads=1 / sliced_threads=0 / nr=0 / decimate=1 / interlaced=0 / bluray_compat=0 / constrained_intra=0 / bframes=3 / b_pyramid=2 / b_adapt=2 / b_bias=0 / direct=3 / weightb=1 / open_gop=0 / weightp=2 / keyint=240 / keyint_min=24 / scenecut=40 / intra_refresh=0 / rc_lookahead=50 / rc=2pass / mbtree=1 / bitrate=5578 / ratetol=1.0 / qcomp=0.60 / qpmin=0 / qpmax=69 / qpstep=4 / cplxblur=20.0 / qblur=0.5 / ip_ratio=1.40 / aq=3:0.80
  25. Default                                  : Yes
  26. Forced                                   : No
  27. Statistics Tags Issue                    : no_variable_data 1970-01-01 00:00:00 / no_variable_data 2010-02-22 21:41:29
  28. FromStats_BitRate                        : 5570789
  29. FromStats_Duration                       : 01:38:34.875000000
  30. FromStats_FrameCount                     : 141957
  31. FromStats_StreamSize                     : 4118815543

  32. Audio
  33. ID                                       : 2
  34. Format                                   : DTS
  35. Format/Info                              : Digital Theater Systems
  36. Codec ID                                 : A_DTS
  37. Duration                                 : 1 h 38 min
  38. Bit rate mode                            : Constant
  39. Bit rate                                 : 768 kb/s
  40. Channel(s)                               : 6 channels
  41. Channel layout                           : C L R Ls Rs LFE
  42. Sampling rate                            : 48.0 kHz
  43. Frame rate                               : 93.750 FPS (512 SPF)
  44. Bit depth                                : 24 bits
  45. Compression mode                         : Lossy
  46. Stream size                              : 542 MiB (12%)
  47. Language                                 : English
  48. Default                                  : Yes
  49. Forced                                   : No
  50. Statistics Tags Issue                    : no_variable_data 1970-01-01 00:00:00 / no_variable_data 2010-02-22 21:41:29
  51. FromStats_BitRate                        : 767999
  52. FromStats_Duration                       : 01:38:34.966000000
  53. FromStats_FrameCount                     : 554528
  54. FromStats_StreamSize                     : 567836672

  55. Text #1
  56. ID                                       : 3
  57. Format                                   : UTF-8
  58. Codec ID                                 : S_TEXT/UTF8
  59. Codec ID/Info                            : UTF-8 Plain Text
  60. Language                                 : English
  61. Default                                  : No
  62. Forced                                   : No
  63. Statistics Tags Issue                    : no_variable_data 1970-01-01 00:00:00 / no_variable_data 2010-02-22 21:41:29
  64. FromStats_BitRate                        : 32
  65. FromStats_Duration                       : 01:32:27.667000000
  66. FromStats_FrameCount                     : 689
  67. FromStats_StreamSize                     : 22485

  68. Text #2
  69. ID                                       : 4
  70. Format                                   : UTF-8
  71. Codec ID                                 : S_TEXT/UTF8
  72. Codec ID/Info                            : UTF-8 Plain Text
  73. Title                                    : SDH
  74. Language                                 : English
  75. Default                                  : No
  76. Forced                                   : No
  77. Statistics Tags Issue                    : no_variable_data 1970-01-01 00:00:00 / no_variable_data 2010-02-22 21:41:29
  78. FromStats_BitRate                        : 40
  79. FromStats_Duration                       : 01:33:15.000000000
  80. FromStats_FrameCount                     : 842
  81. FromStats_StreamSize                     : 28065

  82. Menu
  83. 00:00:00.000                             : en:Chapter 01
  84. 00:15:04.917                             : en:Chapter 02
  85. 00:23:28.125                             : en:Chapter 03
  86. 00:36:28.542                             : en:Chapter 04
  87. 00:49:13.708                             : en:Chapter 05
  88. 01:05:01.167                             : en:Chapter 06
  89. 01:11:11.583                             : en:Chapter 07
  90. 01:21:35.875                             : en:Chapter 08
复制代码

最初一棵树 The.Last.Tree.2019.720p.BluRay.x264-PSYCHD 4.37GB-2.png






回复

使用道具 举报

懒得打字嘛,点击右侧快捷回复 【右侧内容,后台自定义】
您需要登录后才可以回帖 登录 | 立即加入

本版积分规则

Archiver|小黑屋| 蓝光电影网 |网站地图

Copyright © 2021 Comsenz Inc. Powered by 蓝光电影网

蓝光电影网

本站内容由用户自主分享和转载自互联网,转载目的在于传递更多信息,并不代表本网赞同其观点和对其真实性负责。

如有侵权、违反国家法律政策行为,请联系我们,我们会第一时间及时清除和处理!

举报反馈邮箱:[email protected]

快速回复 返回顶部 返回列表