找回密码

蓝光电影网

查看: 720|回复: 2

[爱情] 迷魂记 Vertigo.1958.INTERNAL.1080p.BluRay.X264-CLASSiC 13.18GB

[复制链接]
蓝光币
886
发表于 2020-1-28 23:51:50 | 显示全部楼层 |阅读模式
迷魂记 Vertigo.1958.INTERNAL.1080p.BluRay.X264-CLASSiC 13.18GB-1.png

译  名 迷魂记 / Alfred Hitchcock's Vertigo / 眩晕
片  名 Vertigo
年  代 1958
产  地 美国
类  别 恋爱 / 悬疑 / 惊悚
语  言 英语
上映日期 1958-05-09(美国)
IMDb评分  8.3/10 from 335212 users
IMDb链接  https://www.imdb.com/title/tt0052357
豆瓣评分 8.6/10 from 63512 users
豆瓣链接 https://movie.douban.com/subject/1297294/
片  长 128 分钟
导  演 阿尔弗雷德·希区柯克 Alfred Hitchcock
编  剧 亚历克·科佩尔 Alec Coppel / 萨缪尔·A·泰勒 Samuel A. Taylor / 皮埃尔·布瓦洛 Pierre Boileau / 托马·纳西雅克 Thomas Narcejac / 马克斯韦尔·安德森 Maxwell Anderson
主  演 詹姆斯·斯图尔特 James Stewart
       金·诺瓦克 Kim Novak
       芭芭拉·贝尔·戈迪斯 Barbara Bel Geddes
       汤姆·赫尔莫 Tom Helmore
       亨瑞·琼斯 Henry Jones
       雷蒙德贝利 Raymond Bailey
       埃伦·科比 Ellen Corby
       康斯坦丁肖恩 Konstantin Shayne
       李·帕特里克 Lee Patrick
       丹尼·鲍沙其 Danny Borzage
       保罗·布亚尔 Paul Bryar
       贝丝·弗劳尔斯 Bess Flowers
       弗莱德·格兰姆 Fred Graham


标  签 希区柯克 | 悬疑 | 美国 | 惊悚 | 典范 | AlfredHitchcock | 1958 | 美国电影

简  介  

  退役警探约翰·弗格森(詹姆斯·斯图尔特 James Stewart 饰)的同学加文·埃尔斯特(汤姆·赫尔莫 Tom Helmore 饰)是造船商。他请求约翰跟踪自己的妻子,并称妻子经常被鬼魂附身。随后,约翰依照加文的指示,在厄尼餐厅见到了一位美丽的女人(金姆·诺瓦克 Kim Novak 饰)。经过跟踪,约翰发现女人确有分歧平常的行为:开车出门,去花店买花,去墓园在卡洛塔·巴尔德斯的碑前立足,去荣勋宫博物馆注视卡洛塔画像,最落后入麦基屈克旅店并出现在二楼的一扇窗前。约翰随即进入旅店观察,发现女人挂号名为卡洛塔·巴尔德斯,但其房中无人。卡洛塔·巴尔德斯究竟是何方崇高,鬼魂真的能附身活人吗?

获奖情况  

  第31届奥斯卡金像奖(1959)
  最好声响(提名) George Dutton
  最好艺术指导和布景(提名) 萨姆·库默 / Frank R. McKelvy / Henry Bumstead / 哈尔·佩雷拉
  1. Video
  2. ID                                       : 1
  3. Format                                   : AVC
  4. Format/Info                              : Advanced Video Codec
  5. Format profile                           : [email protected]
  6. Format settings                          : CABAC / 4 Ref Frames
  7. Format settings, CABAC                   : Yes
  8. Format settings, Reference frames        : 4 frames
  9. Codec ID                                 : V_MPEG4/ISO/AVC
  10. Duration                                 : 2 h 8 min
  11. Bit rate                                 : 11.2 Mb/s
  12. Width                                    : 1 920 pixels
  13. Height                                   : 1 040 pixels
  14. Display aspect ratio                     : 1.85:1
  15. Frame rate mode                          : Constant
  16. Frame rate                               : 23.976 (24000/1001) FPS
  17. Color space                              : YUV
  18. Chroma subsampling                       : 4:2:0
  19. Bit depth                                : 8 bits
  20. Scan type                                : Progressive
  21. Bits/(Pixel*Frame)                       : 0.235
  22. Stream size                              : 10.1 GiB (77%)
  23. Writing library                          : x264 core 159 r2991 1771b55
  24. Encoding settings                        : cabac=1 / ref=4 / deblock=1:0:0 / analyse=0x3:0x133 / me=tesa / subme=10 / psy=1 / psy_rd=1.00:0.00 / mixed_ref=1 / me_range=24 / chroma_me=1 / trellis=2 / 8x8dct=1 / cqm=0 / deadzone=21,11 / fast_pskip=0 / chroma_qp_offset=-2 / threads=24 / lookahead_threads=4 / sliced_threads=0 / nr=0 / decimate=1 / interlaced=0 / bluray_compat=0 / constrained_intra=0 / bframes=8 / b_pyramid=0 / b_adapt=2 / b_bias=0 / direct=3 / weightb=1 / open_gop=0 / weightp=2 / keyint=240 / keyint_min=24 / scenecut=40 / intra_refresh=0 / rc_lookahead=60 / rc=2pass / mbtree=1 / bitrate=11239 / ratetol=1.0 / qcomp=0.60 / qpmin=0 / qpmax=69 / qpstep=4 / cplxblur=20.0 / qblur=0.5 / vbv_maxrate=78125 / vbv_bufsize=62500 / nal_hrd=none / filler=0 / ip_ratio=1.40 / aq=1:1.00
  25. Default                                  : Yes
  26. Forced                                   : No
  27. Color range                              : Limited
  28. Color primaries                          : BT.709
  29. Transfer characteristics                 : BT.709
  30. Matrix coefficients                      : BT.709

  31. Audio
  32. ID                                       : 2
  33. Format                                   : DTS XLL
  34. Format/Info                              : Digital Theater Systems
  35. Commercial name                          : DTS-HD Master Audio
  36. Codec ID                                 : A_DTS
  37. Duration                                 : 2 h 8 min
  38. Bit rate mode                            : Variable
  39. Bit rate                                 : 3 324 kb/s
  40. Channel(s)                               : 6 channels
  41. Channel layout                           : C L R Ls Rs LFE
  42. Sampling rate                            : 48.0 kHz
  43. Frame rate                               : 93.750 FPS (512 SPF)
  44. Bit depth                                : 24 bits
  45. Compression mode                         : Lossless
  46. Stream size                              : 2.98 GiB (23%)
  47. Language                                 : English
  48. Default                                  : Yes
  49. Forced                                   : No

  50. Menu
  51. 00:00:00.000                             : en:Chapter 01
  52. 00:03:24.996                             : en:Chapter 02
  53. 00:05:00.258                             : en:Chapter 03
  54. 00:11:20.305                             : en:Chapter 04
  55. 00:16:53.304                             : en:Chapter 05
  56. 00:22:13.791                             : en:Chapter 06
  57. 00:25:42.499                             : en:Chapter 07
  58. 00:27:45.789                             : en:Chapter 08
  59. 00:33:52.822                             : en:Chapter 09
  60. 00:38:19.589                             : en:Chapter 10
  61. 00:40:18.374                             : en:Chapter 11
  62. 00:42:56.574                             : en:Chapter 12
  63. 00:43:56.008                             : en:Chapter 13
  64. 00:53:07.976                             : en:Chapter 14
  65. 00:58:23.625                             : en:Chapter 15
  66. 01:02:05.180                             : en:Chapter 16
  67. 01:05:31.302                             : en:Chapter 17
  68. 01:08:35.653                             : en:Chapter 18
  69. 01:12:30.638                             : en:Chapter 19
  70. 01:16:00.222                             : en:Chapter 20
  71. 01:18:17.651                             : en:Chapter 21
  72. 01:23:47.814                             : en:Chapter 22
  73. 01:25:26.413                             : en:Chapter 23
  74. 01:29:02.629                             : en:Chapter 24
  75. 01:31:39.160                             : en:Chapter 25
  76. 01:38:07.173                             : en:Chapter 26
  77. 01:42:22.762                             : en:Chapter 27
  78. 01:45:28.739                             : en:Chapter 28
  79. 01:49:15.340                             : en:Chapter 29
  80. 01:52:06.178                             : en:Chapter 30
  81. 01:57:30.502                             : en:Chapter 31
  82. 01:59:29.371                             : en:Chapter 32
  83. 02:02:06.069                             : en:Chapter 33
  84. 02:05:58.092                             : en:Chapter 34
复制代码

迷魂记 Vertigo.1958.INTERNAL.1080p.BluRay.X264-CLASSiC 13.18GB-2.png






回复

使用道具 举报

蓝光币
2030
发表于 2020-6-24 23:48:05 | 显示全部楼层
老片子好看 感谢楼主分享
回复 支持 反对

使用道具 举报

蓝光币
2030
发表于 2020-6-26 21:55:29 | 显示全部楼层
没得说的!感谢楼主分享!!!
回复 支持 反对

使用道具 举报

懒得打字嘛,点击右侧快捷回复 【右侧内容,后台自定义】
您需要登录后才可以回帖 登录 | 立即加入

本版积分规则

Archiver|小黑屋| 蓝光电影网 |网站地图

Copyright © 2021 Comsenz Inc. Powered by 蓝光电影网

蓝光电影网

本站内容由用户自主分享和转载自互联网,转载目的在于传递更多信息,并不代表本网赞同其观点和对其真实性负责。

如有侵权、违反国家法律政策行为,请联系我们,我们会第一时间及时清除和处理!

举报反馈邮箱:[email protected]

快速回复 返回顶部 返回列表