找回密码

蓝光电影网

查看: 331|回复: 4

[剧情] 桃花泣血/潜藏纽约的杀手 The.Killer.That.Stalked.New.York.1950.1080p.BluRay.x264-BiPOLAR 5.47GB

[复制链接]
蓝光币
886
发表于 2020-1-28 23:57:11 | 显示全部楼层 |阅读模式
桃花泣血/潜藏纽约的杀手 The.Killer.That.Stalked.New.York.1950.1080p.BluRay.x264-BiPOLAR 5.47GB-1.png

译  名 桃花泣血 / 潜藏纽约的杀手
片  名 The Killer That Stalked New York
年  代 1950
产  地 美国
类  别 剧情 / 惊悚 / 黑色电影
语  言 英语
上映日期 1950-12-01
IMDb评分  6.4/10 from 892 users
IMDb链接  https://www.imdb.com/title/tt0042643
豆瓣评分 0/10 from 0 users
豆瓣链接 https://movie.douban.com/subject/3333615/
片  长 USA: 79 分钟
导  演 Earl McEvoy
编  剧 哈里·埃塞克斯 Harry Essex
主  演 伊夫林·凯耶斯 Evelyn Keyes
       查尔斯·科尔温 Charles Korvin
       William Bishop
       多罗茜·马龙 Dorothy Malone


标  签 美国 | 黑色电影 | 1950s | 黑白 | 犯罪 | Dorothy_Malone | 1950 | 黑色

简  介  

  暂无相关剧情先容
  1. Video
  2. ID                                       : 1
  3. Format                                   : AVC
  4. Format/Info                              : Advanced Video Codec
  5. Format profile                           : [email protected]
  6. Format settings                          : CABAC / 4 Ref Frames
  7. Format settings, CABAC                   : Yes
  8. Format settings, Reference frames        : 4 frames
  9. Codec ID                                 : V_MPEG4/ISO/AVC
  10. Duration                                 : 1 h 15 min
  11. Bit rate                                 : 9 554 kb/s
  12. Width                                    : 1 440 pixels
  13. Height                                   : 1 080 pixels
  14. Display aspect ratio                     : 4:3
  15. Frame rate mode                          : Constant
  16. Frame rate                               : 23.976 (24000/1001) FPS
  17. Color space                              : YUV
  18. Chroma subsampling                       : 4:2:0
  19. Bit depth                                : 8 bits
  20. Scan type                                : Progressive
  21. Bits/(Pixel*Frame)                       : 0.256
  22. Stream size                              : 5.06 GiB (93%)
  23. Writing library                          : x264 core 159 r2991 1771b55
  24. Encoding settings                        : cabac=1 / ref=4 / deblock=1:-3:-3 / analyse=0x3:0x133 / me=umh / subme=9 / psy=1 / psy_rd=1.00:0.00 / mixed_ref=1 / me_range=16 / chroma_me=1 / trellis=2 / 8x8dct=1 / cqm=0 / deadzone=21,11 / fast_pskip=0 / chroma_qp_offset=-2 / threads=24 / lookahead_threads=2 / sliced_threads=0 / nr=0 / decimate=1 / interlaced=0 / bluray_compat=0 / constrained_intra=0 / bframes=3 / b_pyramid=2 / b_adapt=1 / b_bias=0 / direct=3 / weightb=1 / open_gop=0 / weightp=2 / keyint=240 / keyint_min=24 / scenecut=40 / intra_refresh=0 / rc_lookahead=50 / rc=2pass / mbtree=1 / bitrate=9554 / ratetol=1.0 / qcomp=0.60 / qpmin=0 / qpmax=69 / qpstep=4 / cplxblur=20.0 / qblur=0.5 / ip_ratio=1.40 / aq=1:1.00
  25. Language                                 : English
  26. Default                                  : Yes
  27. Forced                                   : No

  28. Audio
  29. ID                                       : 2
  30. Format                                   : DTS
  31. Format/Info                              : Digital Theater Systems
  32. Codec ID                                 : A_DTS
  33. Duration                                 : 1 h 15 min
  34. Bit rate mode                            : Constant
  35. Bit rate                                 : 768 kb/s
  36. Channel(s)                               : 1 channel
  37. Channel layout                           : C
  38. Sampling rate                            : 48.0 kHz
  39. Frame rate                               : 93.750 FPS (512 SPF)
  40. Bit depth                                : 24 bits
  41. Compression mode                         : Lossy
  42. Stream size                              : 416 MiB (7%)
  43. Language                                 : English
  44. Default                                  : Yes
  45. Forced                                   : No

  46. Text #1
  47. ID                                       : 3
  48. Format                                   : UTF-8
  49. Codec ID                                 : S_TEXT/UTF8
  50. Codec ID/Info                            : UTF-8 Plain Text
  51. Duration                                 : 1 h 14 min
  52. Bit rate                                 : 74 b/s
  53. Count of elements                        : 1352
  54. Stream size                              : 40.2 KiB (0%)
  55. Title                                    : English
  56. Language                                 : English
  57. Default                                  : No
  58. Forced                                   : No

  59. Text #2
  60. ID                                       : 4
  61. Format                                   : UTF-8
  62. Codec ID                                 : S_TEXT/UTF8
  63. Codec ID/Info                            : UTF-8 Plain Text
  64. Duration                                 : 1 h 15 min
  65. Bit rate                                 : 79 b/s
  66. Count of elements                        : 1485
  67. Stream size                              : 43.5 KiB (0%)
  68. Title                                    : English SDH
  69. Language                                 : English
  70. Default                                  : No
  71. Forced                                   : No

  72. Menu
  73. 00:00:00.000                             : en:00:00:00.000
  74. 00:01:02.813                             : en:00:01:02.813
  75. 00:08:51.614                             : en:00:08:51.614
  76. 00:16:52.428                             : en:00:16:52.428
  77. 00:21:05.139                             : en:00:21:05.139
  78. 00:26:20.662                             : en:00:26:20.662
  79. 00:36:40.115                             : en:00:36:40.115
  80. 00:45:25.806                             : en:00:45:25.806
  81. 00:53:34.086                             : en:00:53:34.086
  82. 01:00:31.002                             : en:01:00:31.002
  83. 01:04:41.378                             : en:01:04:41.378
  84. 01:10:50.121                             : en:01:10:50.121
  85. 01:15:47.460                             : en:01:15:47.460
复制代码

桃花泣血/潜藏纽约的杀手 The.Killer.That.Stalked.New.York.1950.1080p.BluRay.x264-BiPOLAR 5.47GB-2.png






回复

使用道具 举报

懒得打字嘛,点击右侧快捷回复 【右侧内容,后台自定义】
您需要登录后才可以回帖 登录 | 立即加入

本版积分规则

Archiver|小黑屋| 蓝光电影网 |网站地图

Copyright © 2021 Comsenz Inc. Powered by 蓝光电影网

蓝光电影网

本站内容由用户自主分享和转载自互联网,转载目的在于传递更多信息,并不代表本网赞同其观点和对其真实性负责。

如有侵权、违反国家法律政策行为,请联系我们,我们会第一时间及时清除和处理!

举报反馈邮箱:[email protected]

快速回复 返回顶部 返回列表