找回密码

蓝光电影网

查看: 324|回复: 2

[剧情] 迈阿密故事 The.Miami.Story.1954.720p.BluRay.x264-BiPOLAR 3.28GB

[复制链接]
蓝光币
886
发表于 2020-1-29 18:28:46 | 显示全部楼层 |阅读模式
迈阿密故事 The.Miami.Story.1954.720p.BluRay.x264-BiPOLAR 3.28GB-1.png

译  名 迈阿密故事
片  名 The Miami Story
年  代 1954
产  地 美国
类  别 剧情 / 犯罪
语  言 英语
上映日期 1954
IMDb评分  6.3/10 from 172 users
IMDb链接  https://www.imdb.com/title/tt0047232
豆瓣评分 0/10 from 0 users
豆瓣链接 https://movie.douban.com/subject/5062268/
片  长 75 分钟
导  演 Fred F. Sears
编  剧 Robert E. Kent
主  演 巴瑞·萨里万 Barry Sullivan
       卢瑟·艾德勒 Luther Adler
       阿黛尔·杰金斯 Adele Jergens


标  签 黑色电影 | 1954 | 美国电影 | 美国 | 弗雷德.西尔斯 | tik | Fred_F.Sears | Film_Noir

简  介  

  暂无相关剧情先容
  1. Video
  2. ID                                       : 1
  3. Format                                   : AVC
  4. Format/Info                              : Advanced Video Codec
  5. Format profile                           : [email protected]
  6. Format settings                          : CABAC / 5 Ref Frames
  7. Format settings, CABAC                   : Yes
  8. Format settings, Reference frames        : 5 frames
  9. Codec ID                                 : V_MPEG4/ISO/AVC
  10. Duration                                 : 1 h 15 min
  11. Bit rate                                 : 5 456 kb/s
  12. Width                                    : 1 280 pixels
  13. Height                                   : 688 pixels
  14. Display aspect ratio                     : 1.85:1
  15. Frame rate mode                          : Constant
  16. Frame rate                               : 23.976 (24000/1001) FPS
  17. Color space                              : YUV
  18. Chroma subsampling                       : 4:2:0
  19. Bit depth                                : 8 bits
  20. Scan type                                : Progressive
  21. Bits/(Pixel*Frame)                       : 0.258
  22. Stream size                              : 2.87 GiB (88%)
  23. Writing library                          : x264 core 159 r2991 1771b55
  24. Encoding settings                        : cabac=1 / ref=5 / deblock=1:-3:-3 / analyse=0x3:0x133 / me=umh / subme=9 / psy=1 / psy_rd=1.00:0.00 / mixed_ref=1 / me_range=16 / chroma_me=1 / trellis=2 / 8x8dct=1 / cqm=0 / deadzone=21,11 / fast_pskip=0 / chroma_qp_offset=-2 / threads=48 / lookahead_threads=4 / sliced_threads=0 / nr=0 / decimate=1 / interlaced=0 / bluray_compat=0 / constrained_intra=0 / bframes=3 / b_pyramid=2 / b_adapt=1 / b_bias=0 / direct=3 / weightb=1 / open_gop=0 / weightp=2 / keyint=240 / keyint_min=24 / scenecut=40 / intra_refresh=0 / rc_lookahead=50 / rc=2pass / mbtree=1 / bitrate=5456 / ratetol=1.0 / qcomp=0.60 / qpmin=0 / qpmax=69 / qpstep=4 / cplxblur=20.0 / qblur=0.5 / ip_ratio=1.40 / aq=1:1.00
  25. Language                                 : English
  26. Default                                  : Yes
  27. Forced                                   : No

  28. Audio
  29. ID                                       : 2
  30. Format                                   : DTS
  31. Format/Info                              : Digital Theater Systems
  32. Codec ID                                 : A_DTS
  33. Duration                                 : 1 h 15 min
  34. Bit rate mode                            : Constant
  35. Bit rate                                 : 768 kb/s
  36. Channel(s)                               : 1 channel
  37. Channel layout                           : C
  38. Sampling rate                            : 48.0 kHz
  39. Frame rate                               : 93.750 FPS (512 SPF)
  40. Bit depth                                : 24 bits
  41. Compression mode                         : Lossy
  42. Stream size                              : 414 MiB (12%)
  43. Language                                 : English
  44. Default                                  : Yes
  45. Forced                                   : No

  46. Text #1
  47. ID                                       : 3
  48. Format                                   : UTF-8
  49. Codec ID                                 : S_TEXT/UTF8
  50. Codec ID/Info                            : UTF-8 Plain Text
  51. Duration                                 : 1 h 14 min
  52. Bit rate                                 : 83 b/s
  53. Count of elements                        : 1486
  54. Stream size                              : 45.3 KiB (0%)
  55. Title                                    : English
  56. Language                                 : English
  57. Default                                  : No
  58. Forced                                   : No

  59. Text #2
  60. ID                                       : 4
  61. Format                                   : UTF-8
  62. Codec ID                                 : S_TEXT/UTF8
  63. Codec ID/Info                            : UTF-8 Plain Text
  64. Duration                                 : 1 h 15 min
  65. Bit rate                                 : 85 b/s
  66. Count of elements                        : 1553
  67. Stream size                              : 46.8 KiB (0%)
  68. Title                                    : English SDH
  69. Language                                 : English
  70. Default                                  : No
  71. Forced                                   : No

  72. Menu
  73. 00:00:00.000                             : en:00:00:00.000
  74. 00:00:55.222                             : en:00:00:55.222
  75. 00:08:43.106                             : en:00:08:43.106
  76. 00:16:32.241                             : en:00:16:32.241
  77. 00:27:03.664                             : en:00:27:03.664
  78. 00:29:23.804                             : en:00:29:23.804
  79. 00:36:52.544                             : en:00:36:52.544
  80. 00:43:40.159                             : en:00:43:40.159
  81. 00:51:48.188                             : en:00:51:48.188
  82. 00:59:50.504                             : en:00:59:50.504
  83. 01:05:25.422                             : en:01:05:25.422
  84. 01:10:58.004                             : en:01:10:58.004
复制代码

迈阿密故事 The.Miami.Story.1954.720p.BluRay.x264-BiPOLAR 3.28GB-2.png






回复

使用道具 举报

蓝光币
80
发表于 2020-1-29 18:56:49 | 显示全部楼层
楼主发贴辛苦了,谢谢楼主分享!我觉得蓝光电影网是注册对了!
回复 支持 反对

使用道具 举报

蓝光币
3734
发表于 2020-1-30 00:01:58 | 显示全部楼层
谢谢楼主分享
回复 支持 反对

使用道具 举报

懒得打字嘛,点击右侧快捷回复 【右侧内容,后台自定义】
您需要登录后才可以回帖 登录 | 立即加入

本版积分规则

Archiver|小黑屋| 蓝光电影网 |网站地图

Copyright © 2021 Comsenz Inc. Powered by 蓝光电影网

蓝光电影网

本站内容由用户自主分享和转载自互联网,转载目的在于传递更多信息,并不代表本网赞同其观点和对其真实性负责。

如有侵权、违反国家法律政策行为,请联系我们,我们会第一时间及时清除和处理!

举报反馈邮箱:[email protected]

快速回复 返回顶部 返回列表