找回密码

蓝光电影网

查看: 555|回复: 0

[剧情] 科学怪人的复仇 The.Revenge.of.Frankenstein.1958.1080p.BluRay.REMUX.AVC.LPCM.1.0-FGT 22.84GB

[复制链接]
蓝光币
1020
发表于 2020-1-29 18:37:06 | 显示全部楼层 |阅读模式
科学怪人的复仇 The.Revenge.of.Frankenstein.1958.1080p.BluRay.REMUX.AVC.LPCM.1.0-FGT 22.84GB-1.png

译  名 科学怪人的复仇
片  名 The Revenge of Frankenstein
年  代 1958
产  地 英国
类  别 剧情 / 科幻 / 可骇
语  言 英语
上映日期 1958-06-01
IMDb评分  6.8/10 from 4281 users
IMDb链接  https://www.imdb.com/title/tt0050894
豆瓣评分 0/10 from 0 users
豆瓣链接 https://movie.douban.com/subject/2058951/
片  长 89 分钟
导  演 Terence Fisher
编  剧 George Baxt
主  演 Lionel Jeffries
       John Stuart
       Michael Mulcaster
       彼得·库欣 Peter Cushing


标  签 科幻 | 可骇 | 英国 | Hammer | 惊悚 | Terence_Fisher | 1950s | TerenceFisher

简  介  

  在中欧小村落行医、深得民心的史坦医生在他的慈善医院为病人实施告急手术时,很多病人的手脚都遭到切除,可是村里似乎没有人对此事起疑,除了他的合作对手克雷夫医师。克雷夫医师扬言要揭发史坦医生的实在成分---逃犯,但反倒被史坦压服,成了他的朋友。当史坦和克雷夫用村里邪恶的驼背怪人卡尔的脑壳,来缔造他们自己的怪物时,工作已到不成整理的境界。让本片加倍精采的是,有另一个怪物就是以法兰金斯坦医师的样子塑造而成!
  1. Video
  2. ID                                       : 1
  3. Format                                   : AVC
  4. Format/Info                              : Advanced Video Codec
  5. Format profile                           : [email protected]
  6. Format settings                          : CABAC / 3 Ref Frames
  7. Format settings, CABAC                   : Yes
  8. Format settings, Reference frames        : 3 frames
  9. Codec ID                                 : V_MPEG4/ISO/AVC
  10. Duration                                 : 1 h 29 min
  11. Bit rate mode                            : Variable
  12. Bit rate                                 : 34.8 Mb/s
  13. Maximum bit rate                         : 38.0 Mb/s
  14. Width                                    : 1 920 pixels
  15. Height                                   : 1 080 pixels
  16. Display aspect ratio                     : 16:9
  17. Frame rate mode                          : Constant
  18. Frame rate                               : 23.976 (24000/1001) FPS
  19. Color space                              : YUV
  20. Chroma subsampling                       : 4:2:0
  21. Bit depth                                : 8 bits
  22. Scan type                                : Progressive
  23. Bits/(Pixel*Frame)                       : 0.700
  24. Stream size                              : 21.9 GiB (96%)
  25. Title                                    : The.Revenge.of.Frankenstein.1958.1080p.BluRay.REMUX.AVC.LPCM.1.0-FGT
  26. Language                                 : English
  27. Default                                  : No
  28. Forced                                   : No
  29. Color range                              : Limited
  30. Color primaries                          : BT.709
  31. Transfer characteristics                 : BT.709
  32. Matrix coefficients                      : BT.709

  33. Audio #1
  34. ID                                       : 2
  35. Format                                   : PCM
  36. Format settings                          : Little / Signed
  37. Codec ID                                 : A_PCM/INT/LIT
  38. Duration                                 : 1 h 29 min
  39. Bit rate mode                            : Constant
  40. Bit rate                                 : 1 152 kb/s
  41. Sampling rate                            : 48.0 kHz
  42. Frame rate                               : 30.000 FPS (1600 SPF)
  43. Bit depth                                : 24 bits
  44. Stream size                              : 741 MiB (3%)
  45. Title                                    : The.Revenge.of.Frankenstein.1958.1080p.BluRay.REMUX.AVC.LPCM.1.0-FGT
  46. Language                                 : English
  47. Default                                  : Yes
  48. Forced                                   : No

  49. Audio #2
  50. ID                                       : 3
  51. Format                                   : AC-3
  52. Format/Info                              : Audio Coding 3
  53. Commercial name                          : Dolby Digital
  54. Codec ID                                 : A_AC3
  55. Duration                                 : 1 h 29 min
  56. Bit rate mode                            : Constant
  57. Bit rate                                 : 192 kb/s
  58. Channel(s)                               : 2 channels
  59. Channel layout                           : L R
  60. Sampling rate                            : 48.0 kHz
  61. Frame rate                               : 31.250 FPS (1536 SPF)
  62. Bit depth                                : 16 bits
  63. Compression mode                         : Lossy
  64. Stream size                              : 124 MiB (1%)
  65. Title                                    : The.Revenge.of.Frankenstein.1958.1080p.BluRay.REMUX.AVC.LPCM.1.0-FGT
  66. Language                                 : English
  67. Service kind                             : Complete Main
  68. Default                                  : No
  69. Forced                                   : No

  70. Audio #3
  71. ID                                       : 4
  72. Format                                   : AC-3
  73. Format/Info                              : Audio Coding 3
  74. Commercial name                          : Dolby Digital
  75. Codec ID                                 : A_AC3
  76. Duration                                 : 1 h 29 min
  77. Bit rate mode                            : Constant
  78. Bit rate                                 : 192 kb/s
  79. Channel(s)                               : 2 channels
  80. Channel layout                           : L R
  81. Sampling rate                            : 48.0 kHz
  82. Frame rate                               : 31.250 FPS (1536 SPF)
  83. Bit depth                                : 16 bits
  84. Compression mode                         : Lossy
  85. Stream size                              : 124 MiB (1%)
  86. Title                                    : The.Revenge.of.Frankenstein.1958.1080p.BluRay.REMUX.AVC.LPCM.1.0-FGT
  87. Language                                 : English
  88. Service kind                             : Complete Main
  89. Default                                  : No
  90. Forced                                   : No

  91. Text
  92. ID                                       : 5
  93. Format                                   : PGS
  94. Muxing mode                              : zlib
  95. Codec ID                                 : S_HDMV/PGS
  96. Codec ID/Info                            : Picture based subtitle format used on BDs/HD-DVDs
  97. Duration                                 : 1 h 29 min
  98. Bit rate                                 : 33.3 kb/s
  99. Count of elements                        : 2016
  100. Stream size                              : 21.3 MiB (0%)
  101. Title                                    : English-PGS
  102. Language                                 : English
  103. Default                                  : Yes
  104. Forced                                   : No

  105. Menu
  106. 00:00:00.000                             : en:Chapter 01
  107. 00:08:29.133                             : en:Chapter 02
  108. 00:13:22.968                             : en:Chapter 03
  109. 00:21:55.897                             : en:Chapter 04
  110. 00:30:43.091                             : en:Chapter 05
  111. 00:33:45.815                             : en:Chapter 06
  112. 00:39:34.163                             : en:Chapter 07
  113. 00:48:49.301                             : en:Chapter 08
  114. 00:52:55.130                             : en:Chapter 09
  115. 00:58:20.538                             : en:Chapter 10
  116. 01:06:22.895                             : en:Chapter 11
  117. 01:12:20.210                             : en:Chapter 12
  118. 01:23:54.571                             : en:Chapter 13
复制代码

科学怪人的复仇 The.Revenge.of.Frankenstein.1958.1080p.BluRay.REMUX.AVC.LPCM.1.0-FGT 22.84GB-1.png 科学怪人的复仇 The.Revenge.of.Frankenstein.1958.1080p.BluRay.REMUX.AVC.LPCM.1.0-FGT 22.84GB-3.png 科学怪人的复仇 The.Revenge.of.Frankenstein.1958.1080p.BluRay.REMUX.AVC.LPCM.1.0-FGT 22.84GB-4.png






回复

使用道具 举报

懒得打字嘛,点击右侧快捷回复 【右侧内容,后台自定义】
您需要登录后才可以回帖 登录 | 立即加入

本版积分规则

Archiver|小黑屋| 蓝光电影网 |网站地图

Copyright © 2021 Comsenz Inc. Powered by 蓝光电影网

蓝光电影网

本站内容由用户自主分享和转载自互联网,转载目的在于传递更多信息,并不代表本网赞同其观点和对其真实性负责。

如有侵权、违反国家法律政策行为,请联系我们,我们会第一时间及时清除和处理!

举报反馈邮箱:[email protected]

快速回复 返回顶部 返回列表