找回密码

蓝光电影网

查看: 526|回复: 0

[爱情] 热情暑假/夏日狂欢 Summer.Holiday.1963.1080p.BluRay.REMUX.AVC.LPCM.2.0-FGT 26.09GB

[复制链接]
蓝光币
894
发表于 2020-1-29 18:38:28 | 显示全部楼层 |阅读模式
热情暑假/夏日狂欢 Summer.Holiday.1963.1080p.BluRay.REMUX.AVC.LPCM.2.0-FGT 26.09GB-1.png

译  名 热情暑假 / 夏日狂欢(港)
片  名 Summer Holiday
年  代 1963
产  地 英国
类  别 恋爱 / 音乐
语  言 英语
上映日期 1963
IMDb评分  6.1/10 from 1257 users
IMDb链接  https://www.imdb.com/title/tt0057541
豆瓣评分 0/10 from 0 users
豆瓣链接 https://movie.douban.com/subject/5058644/
片  长 107 分钟
导  演 Peter Yates
编  剧 Peter Myers
主  演 克利夫·理查 Cliff Richard


标  签 音乐 | 歌舞 | Cliff_Richard | 1963 | 英国 | 美國 | 克利夫·理查 | CliffRichard

简  介  

  暂无相关剧情先容
  1. Video
  2. ID                                       : 1
  3. Format                                   : AVC
  4. Format/Info                              : Advanced Video Codec
  5. Format profile                           : [email protected]
  6. Format settings                          : CABAC / 4 Ref Frames
  7. Format settings, CABAC                   : Yes
  8. Format settings, Reference frames        : 4 frames
  9. Codec ID                                 : V_MPEG4/ISO/AVC
  10. Duration                                 : 1 h 48 min
  11. Bit rate mode                            : Variable
  12. Bit rate                                 : 29.9 Mb/s
  13. Maximum bit rate                         : 38.0 Mb/s
  14. Width                                    : 1 920 pixels
  15. Height                                   : 1 080 pixels
  16. Display aspect ratio                     : 16:9
  17. Frame rate mode                          : Constant
  18. Frame rate                               : 24.000 FPS
  19. Color space                              : YUV
  20. Chroma subsampling                       : 4:2:0
  21. Bit depth                                : 8 bits
  22. Scan type                                : Progressive
  23. Bits/(Pixel*Frame)                       : 0.601
  24. Stream size                              : 22.6 GiB (87%)
  25. Title                                    : Summer.Holiday.1963.1080p.BluRay.REMUX.AVC.LPCM.2.0-FGT
  26. Language                                 : English
  27. Default                                  : No
  28. Forced                                   : No

  29. Audio #1
  30. ID                                       : 2
  31. Format                                   : PCM
  32. Format settings                          : Little / Signed
  33. Codec ID                                 : A_PCM/INT/LIT
  34. Duration                                 : 1 h 48 min
  35. Bit rate mode                            : Constant
  36. Bit rate                                 : 2 304 kb/s
  37. Channel(s)                               : 2 channels
  38. Sampling rate                            : 48.0 kHz
  39. Frame rate                               : 30.000 FPS (1600 SPF)
  40. Bit depth                                : 24 bits
  41. Stream size                              : 1.74 GiB (7%)
  42. Title                                    : Summer.Holiday.1963.1080p.BluRay.REMUX.AVC.LPCM.2.0-FGT
  43. Language                                 : English
  44. Default                                  : Yes
  45. Forced                                   : No

  46. Audio #2
  47. ID                                       : 3
  48. Format                                   : PCM
  49. Format settings                          : Little / Signed
  50. Codec ID                                 : A_PCM/INT/LIT
  51. Duration                                 : 1 h 48 min
  52. Bit rate mode                            : Constant
  53. Bit rate                                 : 2 304 kb/s
  54. Channel(s)                               : 2 channels
  55. Sampling rate                            : 48.0 kHz
  56. Frame rate                               : 30.000 FPS (1600 SPF)
  57. Bit depth                                : 24 bits
  58. Stream size                              : 1.74 GiB (7%)
  59. Title                                    : Summer.Holiday.1963.1080p.BluRay.REMUX.AVC.LPCM.2.0-FGT
  60. Language                                 : English
  61. Default                                  : No
  62. Forced                                   : No

  63. Text
  64. ID                                       : 4
  65. Format                                   : PGS
  66. Muxing mode                              : zlib
  67. Codec ID                                 : S_HDMV/PGS
  68. Codec ID/Info                            : Picture based subtitle format used on BDs/HD-DVDs
  69. Duration                                 : 1 h 47 min
  70. Bit rate                                 : 45.0 kb/s
  71. Count of elements                        : 3372
  72. Stream size                              : 34.7 MiB (0%)
  73. Title                                    : English-PGS
  74. Language                                 : English
  75. Default                                  : Yes
  76. Forced                                   : No

  77. Menu
  78. 00:00:00.000                             : en:Chapter 01
  79. 00:07:05.791                             : en:Chapter 02
  80. 00:17:34.250                             : en:Chapter 03
  81. 00:34:04.583                             : en:Chapter 04
  82. 00:40:34.625                             : en:Chapter 05
  83. 00:50:48.708                             : en:Chapter 06
  84. 01:05:02.291                             : en:Chapter 07
  85. 01:16:05.500                             : en:Chapter 08
  86. 01:20:49.375                             : en:Chapter 09
  87. 01:32:44.875                             : en:Chapter 10
  88. 01:38:38.125                             : en:Chapter 11
  89. 01:43:02.500                             : en:Chapter 12
复制代码

热情暑假/夏日狂欢 Summer.Holiday.1963.1080p.BluRay.REMUX.AVC.LPCM.2.0-FGT 26.09GB-2.png 热情暑假/夏日狂欢 Summer.Holiday.1963.1080p.BluRay.REMUX.AVC.LPCM.2.0-FGT 26.09GB-2.png 热情暑假/夏日狂欢 Summer.Holiday.1963.1080p.BluRay.REMUX.AVC.LPCM.2.0-FGT 26.09GB-4.png






回复

使用道具 举报

懒得打字嘛,点击右侧快捷回复 【右侧内容,后台自定义】
您需要登录后才可以回帖 登录 | 立即加入

本版积分规则

Archiver|小黑屋| 蓝光电影网 |网站地图

Copyright © 2021 Comsenz Inc. Powered by 蓝光电影网

蓝光电影网

本站内容由用户自主分享和转载自互联网,转载目的在于传递更多信息,并不代表本网赞同其观点和对其真实性负责。

如有侵权、违反国家法律政策行为,请联系我们,我们会第一时间及时清除和处理!

举报反馈邮箱:[email protected]

快速回复 返回顶部 返回列表