找回密码

蓝光电影网

查看: 471|回复: 0

[喜剧] 福星急转弯/与麦克在一起 Life.with.Mikey.1993.1080p.BluRay.REMUX.AVC.DTS-HD.MA.2.0-FGT 17.24GB

[复制链接]
蓝光币
886
发表于 2020-1-29 18:41:08 | 显示全部楼层 |阅读模式
福星急转弯/与麦克在一路 Life.with.Mikey.1993.1080p.BluRay.REMUX.AVC.DTS-HD.MA.2.0-FGT 17.24GB-1.png

译  名 福星急转弯 / 与麦克在一路
片  名 Life with Mikey
年  代 1993
产  地 美国
类  别 笑剧 / 家庭
语  言 英语
上映日期 1993-06-04
IMDb评分  5.6/10 from 5138 users
IMDb链接  https://www.imdb.com/title/tt0107413
豆瓣评分 0/10 from 0 users
豆瓣链接 https://movie.douban.com/subject/1300973/
片  长 91 分钟
导  演 詹姆斯·拉派恩 James Lapine
编  剧 马克·劳伦斯 Marc Lawrence
主  演 迈克尔·J·福克斯 Michael J. Fox
       克里斯蒂娜·怀道尔 Christina Vidal
       辛迪·劳帕 Cyndi Lauper


标  签 笑剧 | 美国电影 | 儿童 | USA | 1993 | 迈克尔·J·福克斯 | 美國 | 美国

简  介  

  麦克是查普曼公司的一位职业司理人。平常的工作就是凭仗其小时辰主演的电视剧《与麦克在一路》而赢得的著名度来招募儿童演员,经过形象设想和专业表演指导后向需要建造广告片的生产商保举,然后依照比例收取用度保持公司的运转。为此,麦克的身旁聚集着一群各具拿手的孩子。巴瑞就是这群孩子中的一位,只是巴瑞的狂妄使相互之间的合作显得并不默契。
  戴德节此日,麦克为一家火鸡快餐店开张剪彩后,在大街上碰到了一个叫安吉的小姑娘。由于家庭的缘由,安吉养成了盗窃的恶习。在看过安吉因再次行窃而被失主捉住的一番表演后,一种直觉告诉麦克,在安吉的身上有着其他孩子无与伦比的表演天赋。因而,麦克冒以父亲的名义把安吉从围观的人群中解救出来,并告竣了合作的协议。
  第二天,安吉带着生活用品不请自到地住到了麦克脏乱不胜的家里。经太长久的培训后,麦克就把安吉保举给了阳光光辉饼业团体的老总柯可兰师长。成果,安吉的表演不负众望,广告片的摄制也很是成功。就在麦可和同伴埃德为安吉的成功欣喜不已时,由于安吉在文件上不实在的签名激发了法令题目,已经摄制好的广告片为此也不得播出。
  为了帮助安吉因家庭缘由酿成的心灵孤寂,麦可特地找到安吉的爸爸,并在圣诞节到来此日举行了一个体开生面的集会。麦克的真诚让安吉非常的欢畅,当安吉得知麦克赖以保存的查普曼公司由于巴瑞的“跳槽”而面临破产时,安吉用孩子们自己的方式把巴瑞找了返来,一群天真欢畅的孩子终究又得以能和麦克在一路。
  1. Video
  2. ID                                       : 1
  3. Format                                   : AVC
  4. Format/Info                              : Advanced Video Codec
  5. Format profile                           : [email protected]
  6. Format settings                          : CABAC / 4 Ref Frames
  7. Format settings, CABAC                   : Yes
  8. Format settings, Reference frames        : 4 frames
  9. Codec ID                                 : V_MPEG4/ISO/AVC
  10. Duration                                 : 1 h 31 min
  11. Bit rate mode                            : Variable
  12. Bit rate                                 : 25.4 Mb/s
  13. Maximum bit rate                         : 35.0 Mb/s
  14. Width                                    : 1 920 pixels
  15. Height                                   : 1 080 pixels
  16. Display aspect ratio                     : 16:9
  17. Frame rate mode                          : Constant
  18. Frame rate                               : 23.976 (24000/1001) FPS
  19. Color space                              : YUV
  20. Chroma subsampling                       : 4:2:0
  21. Bit depth                                : 8 bits
  22. Scan type                                : Progressive
  23. Bits/(Pixel*Frame)                       : 0.511
  24. Stream size                              : 16.2 GiB (94%)
  25. Title                                    : Life.with.Mikey.1993.1080p.BluRay.REMUX.AVC.DTS-HD.MA.2.0-FGT
  26. Language                                 : English
  27. Default                                  : No
  28. Forced                                   : No

  29. Audio
  30. ID                                       : 2
  31. Format                                   : DTS XLL
  32. Format/Info                              : Digital Theater Systems
  33. Commercial name                          : DTS-HD Master Audio
  34. Codec ID                                 : A_DTS
  35. Duration                                 : 1 h 31 min
  36. Bit rate mode                            : Variable
  37. Bit rate                                 : 1 557 kb/s
  38. Channel(s)                               : 2 channels
  39. Channel layout                           : L R
  40. Sampling rate                            : 48.0 kHz
  41. Frame rate                               : 93.750 FPS (512 SPF)
  42. Bit depth                                : 16 bits
  43. Compression mode                         : Lossless
  44. Stream size                              : 1 019 MiB (6%)
  45. Title                                    : Life.with.Mikey.1993.1080p.BluRay.REMUX.AVC.DTS-HD.MA.2.0-FGT
  46. Language                                 : English
  47. Default                                  : Yes
  48. Forced                                   : No

  49. Text
  50. ID                                       : 3
  51. Format                                   : PGS
  52. Muxing mode                              : zlib
  53. Codec ID                                 : S_HDMV/PGS
  54. Codec ID/Info                            : Picture based subtitle format used on BDs/HD-DVDs
  55. Duration                                 : 1 h 30 min
  56. Bit rate                                 : 46.8 kb/s
  57. Count of elements                        : 3774
  58. Stream size                              : 30.3 MiB (0%)
  59. Title                                    : English-PGS
  60. Language                                 : English
  61. Default                                  : Yes
  62. Forced                                   : No

  63. Menu
  64. 00:00:00.000                             : en:Chapter 00
  65. 00:09:49.171                             : en:Chapter 01
  66. 00:20:09.291                             : en:Chapter 02
  67. 00:34:27.440                             : en:Chapter 03
  68. 00:43:29.690                             : en:Chapter 04
  69. 00:55:33.038                             : en:Chapter 05
  70. 01:05:43.064                             : en:Chapter 06
  71. 01:18:13.772                             : en:Chapter 07
复制代码

福星急转弯/与麦克在一路 Life.with.Mikey.1993.1080p.BluRay.REMUX.AVC.DTS-HD.MA.2.0-FGT 17.24GB-2.png 福星急转弯/与麦克在一路 Life.with.Mikey.1993.1080p.BluRay.REMUX.AVC.DTS-HD.MA.2.0-FGT 17.24GB-3.png 福星急转弯/与麦克在一路 Life.with.Mikey.1993.1080p.BluRay.REMUX.AVC.DTS-HD.MA.2.0-FGT 17.24GB-4.png






回复

使用道具 举报

懒得打字嘛,点击右侧快捷回复 【右侧内容,后台自定义】
您需要登录后才可以回帖 登录 | 立即加入

本版积分规则

Archiver|小黑屋| 蓝光电影网 |网站地图

Copyright © 2021 Comsenz Inc. Powered by 蓝光电影网

蓝光电影网

本站内容由用户自主分享和转载自互联网,转载目的在于传递更多信息,并不代表本网赞同其观点和对其真实性负责。

如有侵权、违反国家法律政策行为,请联系我们,我们会第一时间及时清除和处理!

举报反馈邮箱:[email protected]

快速回复 返回顶部 返回列表