找回密码

蓝光电影网

查看: 805|回复: 1

[剧情] 恶霸警察 Jo.Pil-ho.The.Dawning.Rage.2019.KOREAN.1080p.BluRay.REMUX.AVC.DTS-HD.MA.5.1-FGT 30.16GB

[复制链接]
蓝光币
886
发表于 2020-1-29 18:42:25 | 显示全部楼层 |阅读模式
恶霸差人 Jo.Pil-ho.The.Dawning.Rage.2019.KOREAN.1080p.BluRay.REMUX.AVC.DTS-HD.MA.5.1-FGT 30.16GB-1.png

译  名 恶霸差人 / Bad Police / Jo Pil-ho: The Dawning Rage / 恶质差人
片  名 ????
年  代 2019
产  地 韩国
类  别 剧情 / 犯罪
语  言 韩语
上映日期 2019-03-20(韩国)
IMDb评分  6.2/10 from 815 users
IMDb链接  https://www.imdb.com/title/tt7738048
豆瓣评分 6.7/10 from 2668 users
豆瓣链接 https://movie.douban.com/subject/27087784/
片  长 127分钟
导  演 李桢凡 Jeong-beom Lee
编  剧 李桢凡 Jeong-beom Lee
主  演 李善均 Seon-gyun Lee
       全素妮 Jeon So-nee
       朴海俊 Hea-jun Park
       宋永彰 Young-chang Song
       朴秉恩 Byung-eun Park
       金敏载 Kim Min-jae
       郑家蓝 Ga-ram  Jung
       尹亨国 Hyeong-gook Im


标  签 犯罪 | 韩国 | 行动 | 社会 | 2019 | 剧情 | 小人物 | 人性

简  介  

  为了躲避穷追不舍的外务捕快,败北的员警勉为其难地和叛逆青少女联手,诡计在为时已晚前揭开诡计。
  1. Video
  2. ID                                       : 1
  3. Format                                   : AVC
  4. Format/Info                              : Advanced Video Codec
  5. Format profile                           : [email protected]
  6. Format settings                          : CABAC / 4 Ref Frames
  7. Format settings, CABAC                   : Yes
  8. Format settings, Reference frames        : 4 frames
  9. Codec ID                                 : V_MPEG4/ISO/AVC
  10. Duration                                 : 2 h 7 min
  11. Bit rate mode                            : Variable
  12. Bit rate                                 : 30.8 Mb/s
  13. Maximum bit rate                         : 36.0 Mb/s
  14. Width                                    : 1 920 pixels
  15. Height                                   : 1 080 pixels
  16. Display aspect ratio                     : 16:9
  17. Frame rate mode                          : Constant
  18. Frame rate                               : 23.976 (24000/1001) FPS
  19. Standard                                 : NTSC
  20. Color space                              : YUV
  21. Chroma subsampling                       : 4:2:0
  22. Bit depth                                : 8 bits
  23. Scan type                                : Progressive
  24. Bits/(Pixel*Frame)                       : 0.619
  25. Stream size                              : 27.3 GiB (91%)
  26. Title                                    : Jo.Pil-ho.The.Dawning.Rage.2019.KOREAN.1080p.BluRay.REMUX.AVC.DTS-HD.MA.5.1-FGT
  27. Language                                 : English
  28. Default                                  : No
  29. Forced                                   : No
  30. Color range                              : Limited
  31. Color primaries                          : BT.709
  32. Transfer characteristics                 : BT.709
  33. Matrix coefficients                      : BT.709

  34. Audio
  35. ID                                       : 2
  36. Format                                   : DTS XLL
  37. Format/Info                              : Digital Theater Systems
  38. Commercial name                          : DTS-HD Master Audio
  39. Codec ID                                 : A_DTS
  40. Duration                                 : 2 h 7 min
  41. Bit rate mode                            : Variable
  42. Bit rate                                 : 3 155 kb/s
  43. Channel(s)                               : 6 channels
  44. Channel layout                           : C L R Ls Rs LFE
  45. Sampling rate                            : 48.0 kHz
  46. Frame rate                               : 93.750 FPS (512 SPF)
  47. Bit depth                                : 24 bits
  48. Compression mode                         : Lossless
  49. Stream size                              : 2.80 GiB (9%)
  50. Title                                    : Jo.Pil-ho.The.Dawning.Rage.2019.KOREAN.1080p.BluRay.REMUX.AVC.DTS-HD.MA.5.1-FGT
  51. Language                                 : Korean
  52. Default                                  : Yes
  53. Forced                                   : No

  54. Text #1
  55. ID                                       : 3
  56. Format                                   : UTF-8
  57. Codec ID                                 : S_TEXT/UTF8
  58. Codec ID/Info                            : UTF-8 Plain Text
  59. Duration                                 : 2 h 2 min
  60. Bit rate                                 : 38 b/s
  61. Count of elements                        : 1399
  62. Stream size                              : 34.6 KiB (0%)
  63. Title                                    : English-SRT
  64. Language                                 : English
  65. Default                                  : Yes
  66. Forced                                   : No

  67. Text #2
  68. ID                                       : 4
  69. Format                                   : PGS
  70. Muxing mode                              : zlib
  71. Codec ID                                 : S_HDMV/PGS
  72. Codec ID/Info                            : Picture based subtitle format used on BDs/HD-DVDs
  73. Duration                                 : 2 h 0 min
  74. Bit rate                                 : 20.8 kb/s
  75. Count of elements                        : 2975
  76. Stream size                              : 17.9 MiB (0%)
  77. Title                                    : Korean-PGS
  78. Language                                 : Korean
  79. Default                                  : No
  80. Forced                                   : No

  81. Text #3
  82. ID                                       : 5
  83. Format                                   : PGS
  84. Muxing mode                              : zlib
  85. Codec ID                                 : S_HDMV/PGS
  86. Codec ID/Info                            : Picture based subtitle format used on BDs/HD-DVDs
  87. Duration                                 : 2 h 2 min
  88. Bit rate                                 : 21.8 kb/s
  89. Count of elements                        : 2794
  90. Stream size                              : 19.0 MiB (0%)
  91. Title                                    : English-PGS
  92. Language                                 : English
  93. Default                                  : No
  94. Forced                                   : No

  95. Menu
  96. 00:00:00.000                             : ko:Chapter 01
  97. 00:07:01.379                             : ko:Chapter 02
  98. 00:20:06.705                             : ko:Chapter 03
  99. 00:29:28.391                             : ko:Chapter 04
  100. 00:39:08.804                             : ko:Chapter 05
  101. 00:51:37.010                             : ko:Chapter 06
  102. 01:05:09.739                             : ko:Chapter 07
  103. 01:18:09.351                             : ko:Chapter 08
  104. 01:32:48.604                             : ko:Chapter 09
  105. 01:42:07.871                             : ko:Chapter 10
  106. 01:55:39.807                             : ko:Chapter 11
  107. 02:02:53.991                             : ko:Chapter 12
复制代码

恶霸差人 Jo.Pil-ho.The.Dawning.Rage.2019.KOREAN.1080p.BluRay.REMUX.AVC.DTS-HD.MA.5.1-FGT 30.16GB-2.png 恶霸差人 Jo.Pil-ho.The.Dawning.Rage.2019.KOREAN.1080p.BluRay.REMUX.AVC.DTS-HD.MA.5.1-FGT 30.16GB-3.png 恶霸差人 Jo.Pil-ho.The.Dawning.Rage.2019.KOREAN.1080p.BluRay.REMUX.AVC.DTS-HD.MA.5.1-FGT 30.16GB-4.png






回复

使用道具 举报

懒得打字嘛,点击右侧快捷回复 【右侧内容,后台自定义】
您需要登录后才可以回帖 登录 | 立即加入

本版积分规则

Archiver|小黑屋| 蓝光电影网 |网站地图

Copyright © 2021 Comsenz Inc. Powered by 蓝光电影网

蓝光电影网

本站内容由用户自主分享和转载自互联网,转载目的在于传递更多信息,并不代表本网赞同其观点和对其真实性负责。

如有侵权、违反国家法律政策行为,请联系我们,我们会第一时间及时清除和处理!

举报反馈邮箱:[email protected]

快速回复 返回顶部 返回列表