找回密码

蓝光电影网

查看: 1016|回复: 4

[10bit.SDR] 睡梦医生 Doctor.Sleep.2019.THEATRICAL.2160p.BluRay.x265.10bit.SDR.DTS-HD.MA.TrueHD.7.1.Atmos-SWTYBLZ 51.21GB

[复制链接]
蓝光币
894
发表于 2020-1-29 18:44:09 | 显示全部楼层 |阅读模式
睡梦医生 Doctor.Sleep.2019.THEATRICAL.2160p.BluRay.x265.10bit.SDR.DTS-HD.MA.TrueHD.7.1.Atmos-SWTYBLZ 51.21GB-1.png

译  名 睡梦医生 / Dr. Sleep / 《闪灵》续集 / 安息医生(台) / 就寝医师 / 就寝医生 / 长逝医生
片  名 Doctor Sleep
年  代 2019
产  地 美国 / 英国
类  别 剧情 / 惊悚 / 可骇 / 奇异
语  言 英语
上映日期 2019-10-30(法国) / 2019-10-31(英国) / 2019-11-08(美国)
IMDb评分  7.5/10 from 56337 users
IMDb链接  https://www.imdb.com/title/tt5606664
豆瓣评分 6.8/10 from 9257 users
豆瓣链接 https://movie.douban.com/subject/25932065/
片  长 151分钟
导  演 迈克·弗拉纳根 Mike Flanagan
编  剧 斯蒂芬·金 Stephen King / 迈克·弗拉纳根 Mike Flanagan
主  演 伊万·麦克格雷格 Ewan McGregor
       丽贝卡·弗格森 Rebecca Ferguson
       凯丽·卡伦 Kyliegh Curran
       雅各布·特伦布莱 Jacob Tremblay
       卡雷尔·斯特鲁基 Carel Struycken
       丹尼·劳埃德 Danny Lloyd
       艾米丽·阿琳·林德 Emily Alyn Lind
       克利夫·柯蒂斯 Cliff Curtis
       扎恩·迈克拉农 Zahn McClarnon
       切尔西·塔尔玛琪 Chelsea Talmadge
       艾丽克斯·埃索 Alex Essoe
       布鲁斯·格林伍德 Bruce Greenwood
       乔赛琳·唐娜休 Jocelin Donahue
       卡尔·卢波利 Carl Lumbly
       维奥莱特·麦格劳 Violet McGraw
       凯瑟琳·帕克 Catherine Parker
       罗伯特·朗斯特里特 Robert Longstreet
       赛琳娜·安杜兹 Selena Anduze
       尼古拉斯·普罗约尔 Nicholas Pryor
       贝瑟妮·安妮·林德 Bethany Anne Lind
       查尔斯·格林 Charles Green
       扎克瑞·莫莫 Zackary Momoh
       杰森·戴维斯 Jason Davis
       胡安·贾斯帕 Juan Gaspard
       路易斯·桑切斯 Luis Sanchez


标  签 可骇 | 惊悚 | 闪灵续集 | 美国 | 灵异 | 2019 | 小说改编 | 奇异

简  介  

  《闪灵》续集《就寝医师》(Doctor Sleep)北美定档2020年1月24日,仍然按照斯蒂芬·金的同名小说改编,迈克·弗拉纳甘(《杰罗德游戏》《灭亡占卜2》《梦醒之前》)执导。本片聚焦闪灵里的儿子Danny Torrance,履历了Overlook Hotel里可怕的童年时光后,他已经流浪了几十年,渴望摆脱父亲的失望、酒精、暴力等特质,终极假寓在新罕布什尔州的一个小镇上,这是一个支持他的AA制社区,他在一野生老院找到工作,在那边他残余的“闪灵”之力为病笃之人供给了相当重要的终极抚慰。在一只要预知才能的猫的帮助下,他成为了“就寝医师”。2001年女婴Abra Stone诞生,她逐步起头展现超自然之力,似乎猜测到了911事务。她缓慢而无意地与Danny建立起心灵感应的纽带,随着她的长大,气力也比Danny的加倍强大,Danny被重新激起他心中的恶魔,并呼唤他为Abra的灵魂和保存战役。
  弗拉纳甘重写剧本,此前由Akiva Goldsman改编。
  1. Video
  2. ID                                       : 1
  3. Format                                   : HEVC
  4. Format/Info                              : High Efficiency Video Coding
  5. Format profile                           : Main [email protected]@High
  6. Codec ID                                 : V_MPEGH/ISO/HEVC
  7. Duration                                 : 2 h 32 min
  8. Bit rate                                 : 39.3 Mb/s
  9. Width                                    : 3 840 pixels
  10. Height                                   : 2 076 pixels
  11. Display aspect ratio                     : 1.85:1
  12. Frame rate mode                          : Constant
  13. Frame rate                               : 23.976 (24000/1001) FPS
  14. Color space                              : YUV
  15. Chroma subsampling                       : 4:2:0
  16. Bit depth                                : 10 bits
  17. Bits/(Pixel*Frame)                       : 0.205
  18. Stream size                              : 41.7 GiB (82%)
  19. Title                                    : Doctor.Sleep.2019.THEATRICAL.2160p.BluRay.x265.10bit.SDR.DTS-HD.MA.TrueHD.7.1.Atmos-SWTYBLZ
  20. Writing library                          : x265 3.0ed72af837053:[Windows][GCC 8.2.0][64 bit] 10bit
  21. Encoding settings                        : cpuid=1111039 / frame-threads=16 / numa-pools=40 / wpp / no-pmode / no-pme / no-psnr / no-ssim / log-level=2 / input-csp=1 / input-res=3840x2076 / interlace=0 / total-frames=218696 / level-idc=51 / high-tier=1 / uhd-bd=0 / ref=3 / no-allow-non-conformance / repeat-headers / annexb / aud / hrd / info / hash=0 / no-temporal-layers / no-open-gop / min-keyint=1 / keyint=24 / gop-lookahead=0 / bframes=4 / b-adapt=2 / b-pyramid / bframe-bias=0 / rc-lookahead=25 / lookahead-slices=4 / scenecut=40 / radl=0 / no-splice / no-intra-refresh / ctu=64 / min-cu-size=8 / no-rect / no-amp / max-tu-size=32 / tu-inter-depth=1 / tu-intra-depth=1 / limit-tu=0 / rdoq-level=0 / dynamic-rd=0.00 / no-ssim-rd / signhide / no-tskip / nr-intra=0 / nr-inter=0 / no-constrained-intra / strong-intra-smoothing / max-merge=2 / limit-refs=3 / no-limit-modes / me=1 / subme=2 / merange=57 / temporal-mvp / weightp / no-weightb / no-analyze-src-pics / deblock=0:0 / no-sao / no-sao-non-deblock / rd=3 / no-early-skip / rskip / no-fast-intra / no-tskip-fast / no-cu-lossless / no-b-intra / no-splitrd-skip / rdpenalty=0 / psy-rd=2.00 / psy-rdoq=0.00 / no-rd-refine / no-lossless / cbqpoffs=0 / crqpoffs=0 / rc=crf / crf=16.0 / qcomp=0.60 / qpstep=4 / stats-write=0 / stats-read=0 / vbv-maxrate=160000 / vbv-bufsize=160000 / vbv-init=0.9 / crf-max=0.0 / crf-min=0.0 / ipratio=1.40 / pbratio=1.30 / aq-mode=1 / aq-strength=1.00 / cutree / zone-count=0 / no-strict-cbr / qg-size=32 / no-rc-grain / qpmax=69 / qpmin=0 / no-const-vbv / sar=1 / overscan=0 / videoformat=5 / range=0 / colorprim=2 / transfer=2 / colormatrix=2 / chromaloc=0 / display-window=0 / max-cll=0,0 / min-luma=0 / max-luma=1023 / log2-max-poc-lsb=8 / vui-timing-info / vui-hrd-info / slices=1 / opt-qp-pps / opt-ref-list-length-pps / no-multi-pass-opt-rps / scenecut-bias=0.05 / no-opt-cu-delta-qp / no-aq-motion / no-hdr / no-hdr-opt / no-dhdr10-opt / no-idr-recovery-sei / analysis-reuse-level=5 / scale-factor=0 / refine-intra=0 / refine-inter=0 / refine-mv=0 / refine-ctu-distortion=0 / no-limit-sao / ctu-info=0 / no-lowpass-dct / refine-analysis-type=0 / copy-pic=1 / max-ausize-factor=1.0 / no-dynamic-refine / no-single-sei / no-hevc-aq / qp-adaptation-range=1.00
  22. Default                                  : Yes
  23. Forced                                   : No

  24. Audio #1
  25. ID                                       : 2
  26. Format                                   : MLP FBA 16-ch
  27. Format/Info                              : Meridian Lossless Packing FBA with 16-channel presentation
  28. Commercial name                          : Dolby TrueHD with Dolby Atmos
  29. Codec ID                                 : A_TRUEHD
  30. Duration                                 : 2 h 32 min
  31. Bit rate mode                            : Variable
  32. Bit rate                                 : 3 939 kb/s
  33. Maximum bit rate                         : 7 347 kb/s
  34. Channel(s)                               : 8 channels
  35. Channel layout                           : L R C LFE Ls Rs Lb Rb
  36. Sampling rate                            : 48.0 kHz
  37. Frame rate                               : 1 200.000 FPS (40 SPF)
  38. Compression mode                         : Lossless
  39. Stream size                              : 4.18 GiB (8%)
  40. Title                                    : Doctor.Sleep.2019.THEATRICAL.2160p.BluRay.x265.10bit.SDR.DTS-HD.MA.TrueHD.7.1.Atmos-SWTYBLZ
  41. Language                                 : English
  42. Default                                  : Yes
  43. Forced                                   : No
  44. Number of dynamic objects                : 15
  45. Bed channel count                        : 1 channel
  46. Bed channel configuration                : LFE

  47. Audio #2
  48. ID                                       : 3
  49. Format                                   : DTS XLL
  50. Format/Info                              : Digital Theater Systems
  51. Commercial name                          : DTS-HD Master Audio
  52. Codec ID                                 : A_DTS
  53. Duration                                 : 2 h 32 min
  54. Bit rate mode                            : Variable
  55. Bit rate                                 : 4 101 kb/s
  56. Channel(s)                               : 8 channels
  57. Channel layout                           : C L R LFE Lb Rb Lss Rss
  58. Sampling rate                            : 48.0 kHz
  59. Frame rate                               : 93.750 FPS (512 SPF)
  60. Bit depth                                : 24 bits
  61. Compression mode                         : Lossless
  62. Stream size                              : 4.35 GiB (9%)
  63. Title                                    : Doctor.Sleep.2019.THEATRICAL.2160p.BluRay.x265.10bit.SDR.DTS-HD.MA.TrueHD.7.1.Atmos-SWTYBLZ
  64. Language                                 : English
  65. Default                                  : No
  66. Forced                                   : No

  67. Audio #3
  68. ID                                       : 4
  69. Format                                   : AC-3
  70. Format/Info                              : Audio Coding 3
  71. Commercial name                          : Dolby Digital
  72. Codec ID                                 : A_AC3
  73. Duration                                 : 2 h 32 min
  74. Bit rate mode                            : Constant
  75. Bit rate                                 : 640 kb/s
  76. Channel(s)                               : 6 channels
  77. Channel layout                           : L R C LFE Ls Rs
  78. Sampling rate                            : 48.0 kHz
  79. Frame rate                               : 31.250 FPS (1536 SPF)
  80. Compression mode                         : Lossy
  81. Stream size                              : 696 MiB (1%)
  82. Title                                    : Doctor.Sleep.2019.THEATRICAL.2160p.BluRay.x265.10bit.SDR.DTS-HD.MA.TrueHD.7.1.Atmos-SWTYBLZ
  83. Language                                 : English
  84. Service kind                             : Complete Main
  85. Default                                  : No
  86. Forced                                   : No

  87. Text #1
  88. ID                                       : 5
  89. Format                                   : UTF-8
  90. Codec ID                                 : S_TEXT/UTF8
  91. Codec ID/Info                            : UTF-8 Plain Text
  92. Duration                                 : 2 h 27 min
  93. Bit rate                                 : 43 b/s
  94. Count of elements                        : 1931
  95. Stream size                              : 46.8 KiB (0%)
  96. Title                                    : English-SRT
  97. Language                                 : English
  98. Default                                  : Yes
  99. Forced                                   : No

  100. Text #2
  101. ID                                       : 6
  102. Format                                   : PGS
  103. Muxing mode                              : zlib
  104. Codec ID                                 : S_HDMV/PGS
  105. Codec ID/Info                            : Picture based subtitle format used on BDs/HD-DVDs
  106. Duration                                 : 2 h 27 min
  107. Bit rate                                 : 27.1 kb/s
  108. Count of elements                        : 3878
  109. Stream size                              : 28.5 MiB (0%)
  110. Title                                    : English-PGS
  111. Language                                 : English
  112. Default                                  : No
  113. Forced                                   : No

  114. Text #3
  115. ID                                       : 7
  116. Format                                   : PGS
  117. Muxing mode                              : zlib
  118. Codec ID                                 : S_HDMV/PGS
  119. Codec ID/Info                            : Picture based subtitle format used on BDs/HD-DVDs
  120. Duration                                 : 2 h 31 min
  121. Bit rate                                 : 13.1 kb/s
  122. Count of elements                        : 3322
  123. Stream size                              : 14.2 MiB (0%)
  124. Title                                    : Arabic-PGS
  125. Language                                 : Arabic
  126. Default                                  : No
  127. Forced                                   : No

  128. Text #4
  129. ID                                       : 8
  130. Format                                   : PGS
  131. Muxing mode                              : zlib
  132. Codec ID                                 : S_HDMV/PGS
  133. Codec ID/Info                            : Picture based subtitle format used on BDs/HD-DVDs
  134. Duration                                 : 2 h 31 min
  135. Bit rate                                 : 24.0 kb/s
  136. Count of elements                        : 3320
  137. Stream size                              : 25.9 MiB (0%)
  138. Title                                    : Chinese-PGS
  139. Language                                 : Chinese
  140. Default                                  : No
  141. Forced                                   : No

  142. Text #5
  143. ID                                       : 9
  144. Format                                   : PGS
  145. Muxing mode                              : zlib
  146. Codec ID                                 : S_HDMV/PGS
  147. Codec ID/Info                            : Picture based subtitle format used on BDs/HD-DVDs
  148. Duration                                 : 2 h 31 min
  149. Bit rate                                 : 20.4 kb/s
  150. Count of elements                        : 2376
  151. Stream size                              : 22.1 MiB (0%)
  152. Title                                    : Danish-PGS
  153. Language                                 : Danish
  154. Default                                  : No
  155. Forced                                   : No

  156. Text #6
  157. ID                                       : 10
  158. Format                                   : PGS
  159. Muxing mode                              : zlib
  160. Codec ID                                 : S_HDMV/PGS
  161. Codec ID/Info                            : Picture based subtitle format used on BDs/HD-DVDs
  162. Duration                                 : 2 h 31 min
  163. Bit rate                                 : 22.2 kb/s
  164. Count of elements                        : 3222
  165. Stream size                              : 24.0 MiB (0%)
  166. Title                                    : Finnish-PGS
  167. Language                                 : Finnish
  168. Default                                  : No
  169. Forced                                   : No

  170. Text #7
  171. ID                                       : 11
  172. Format                                   : PGS
  173. Muxing mode                              : zlib
  174. Codec ID                                 : S_HDMV/PGS
  175. Codec ID/Info                            : Picture based subtitle format used on BDs/HD-DVDs
  176. Duration                                 : 2 h 31 min
  177. Bit rate                                 : 19.2 kb/s
  178. Count of elements                        : 2918
  179. Stream size                              : 20.7 MiB (0%)
  180. Title                                    : French-PGS
  181. Language                                 : French
  182. Default                                  : No
  183. Forced                                   : No

  184. Text #8
  185. ID                                       : 12
  186. Format                                   : PGS
  187. Muxing mode                              : zlib
  188. Codec ID                                 : S_HDMV/PGS
  189. Codec ID/Info                            : Picture based subtitle format used on BDs/HD-DVDs
  190. Duration                                 : 2 h 31 min
  191. Bit rate                                 : 22.8 kb/s
  192. Count of elements                        : 3286
  193. Stream size                              : 24.6 MiB (0%)
  194. Title                                    : Greek-PGS
  195. Language                                 : Greek
  196. Default                                  : No
  197. Forced                                   : No

  198. Text #9
  199. ID                                       : 13
  200. Format                                   : PGS
  201. Muxing mode                              : zlib
  202. Codec ID                                 : S_HDMV/PGS
  203. Codec ID/Info                            : Picture based subtitle format used on BDs/HD-DVDs
  204. Duration                                 : 2 h 27 min
  205. Bit rate                                 : 25.6 kb/s
  206. Count of elements                        : 3890
  207. Stream size                              : 27.0 MiB (0%)
  208. Title                                    : Italian-PGS
  209. Language                                 : Italian
  210. Default                                  : No
  211. Forced                                   : No

  212. Text #10
  213. ID                                       : 14
  214. Format                                   : PGS
  215. Muxing mode                              : zlib
  216. Codec ID                                 : S_HDMV/PGS
  217. Codec ID/Info                            : Picture based subtitle format used on BDs/HD-DVDs
  218. Duration                                 : 2 h 25 min
  219. Bit rate                                 : 14.8 kb/s
  220. Count of elements                        : 3244
  221. Stream size                              : 15.3 MiB (0%)
  222. Title                                    : Korean-PGS
  223. Language                                 : Korean
  224. Default                                  : No
  225. Forced                                   : No

  226. Text #11
  227. ID                                       : 15
  228. Format                                   : PGS
  229. Muxing mode                              : zlib
  230. Codec ID                                 : S_HDMV/PGS
  231. Codec ID/Info                            : Picture based subtitle format used on BDs/HD-DVDs
  232. Duration                                 : 2 h 31 min
  233. Bit rate                                 : 19.9 kb/s
  234. Count of elements                        : 2456
  235. Stream size                              : 21.5 MiB (0%)
  236. Title                                    : Norwegian-PGS
  237. Language                                 : Norwegian
  238. Default                                  : No
  239. Forced                                   : No

  240. Text #12
  241. ID                                       : 16
  242. Format                                   : PGS
  243. Muxing mode                              : zlib
  244. Codec ID                                 : S_HDMV/PGS
  245. Codec ID/Info                            : Picture based subtitle format used on BDs/HD-DVDs
  246. Duration                                 : 2 h 31 min
  247. Bit rate                                 : 21.7 kb/s
  248. Count of elements                        : 3262
  249. Stream size                              : 23.4 MiB (0%)
  250. Title                                    : Portuguese-PGS
  251. Language                                 : Portuguese
  252. Default                                  : No
  253. Forced                                   : No

  254. Text #13
  255. ID                                       : 17
  256. Format                                   : PGS
  257. Muxing mode                              : zlib
  258. Codec ID                                 : S_HDMV/PGS
  259. Codec ID/Info                            : Picture based subtitle format used on BDs/HD-DVDs
  260. Duration                                 : 2 h 31 min
  261. Bit rate                                 : 21.4 kb/s
  262. Count of elements                        : 3314
  263. Stream size                              : 23.1 MiB (0%)
  264. Title                                    : Russian-PGS
  265. Language                                 : Russian
  266. Default                                  : No
  267. Forced                                   : No

  268. Text #14
  269. ID                                       : 18
  270. Format                                   : PGS
  271. Muxing mode                              : zlib
  272. Codec ID                                 : S_HDMV/PGS
  273. Codec ID/Info                            : Picture based subtitle format used on BDs/HD-DVDs
  274. Duration                                 : 2 h 25 min
  275. Bit rate                                 : 24.7 kb/s
  276. Count of elements                        : 3250
  277. Stream size                              : 25.7 MiB (0%)
  278. Title                                    : Spanish-PGS
  279. Language                                 : Spanish
  280. Default                                  : No
  281. Forced                                   : No

  282. Text #15
  283. ID                                       : 19
  284. Format                                   : PGS
  285. Muxing mode                              : zlib
  286. Codec ID                                 : S_HDMV/PGS
  287. Codec ID/Info                            : Picture based subtitle format used on BDs/HD-DVDs
  288. Duration                                 : 2 h 31 min
  289. Bit rate                                 : 21.7 kb/s
  290. Count of elements                        : 3190
  291. Stream size                              : 23.4 MiB (0%)
  292. Title                                    : Swedish-PGS
  293. Language                                 : Swedish
  294. Default                                  : No
  295. Forced                                   : No

  296. Menu
  297. 00:00:00.000                             : en:Chapter 01
  298. 00:10:36.302                             : en:Chapter 02
  299. 00:19:44.350                             : en:Chapter 03
  300. 00:29:23.345                             : en:Chapter 04
  301. 00:39:51.931                             : en:Chapter 05
  302. 00:49:47.318                             : en:Chapter 06
  303. 00:58:24.710                             : en:Chapter 07
  304. 01:06:00.748                             : en:Chapter 08
  305. 01:11:00.756                             : en:Chapter 09
  306. 01:20:35.497                             : en:Chapter 10
  307. 01:27:07.013                             : en:Chapter 11
  308. 01:35:13.458                             : en:Chapter 12
  309. 01:44:01.902                             : en:Chapter 13
  310. 01:52:52.724                             : en:Chapter 14
  311. 02:01:22.734                             : en:Chapter 15
  312. 02:08:01.507                             : en:Chapter 16
  313. 02:17:27.156                             : en:Chapter 17
  314. 02:23:06.703                             : en:Chapter 18
  315. 02:26:22.107                             : en:Chapter 19
复制代码

睡梦医生 Doctor.Sleep.2019.THEATRICAL.2160p.BluRay.x265.10bit.SDR.DTS-HD.MA.TrueHD.7.1.Atmos-SWTYBLZ 51.21GB-2.png 睡梦医生 Doctor.Sleep.2019.THEATRICAL.2160p.BluRay.x265.10bit.SDR.DTS-HD.MA.TrueHD.7.1.Atmos-SWTYBLZ 51.21GB-3.png 睡梦医生 Doctor.Sleep.2019.THEATRICAL.2160p.BluRay.x265.10bit.SDR.DTS-HD.MA.TrueHD.7.1.Atmos-SWTYBLZ 51.21GB-4.png 睡梦医生 Doctor.Sleep.2019.THEATRICAL.2160p.BluRay.x265.10bit.SDR.DTS-HD.MA.TrueHD.7.1.Atmos-SWTYBLZ 51.21GB-5.png 睡梦医生 Doctor.Sleep.2019.THEATRICAL.2160p.BluRay.x265.10bit.SDR.DTS-HD.MA.TrueHD.7.1.Atmos-SWTYBLZ 51.21GB-6.png 睡梦医生 Doctor.Sleep.2019.THEATRICAL.2160p.BluRay.x265.10bit.SDR.DTS-HD.MA.TrueHD.7.1.Atmos-SWTYBLZ 51.21GB-7.png 睡梦医生 Doctor.Sleep.2019.THEATRICAL.2160p.BluRay.x265.10bit.SDR.DTS-HD.MA.TrueHD.7.1.Atmos-SWTYBLZ 51.21GB-8.png






回复

使用道具 举报

懒得打字嘛,点击右侧快捷回复 【右侧内容,后台自定义】
您需要登录后才可以回帖 登录 | 立即加入

本版积分规则

Archiver|小黑屋| 蓝光电影网 |网站地图

Copyright © 2021 Comsenz Inc. Powered by 蓝光电影网

蓝光电影网

本站内容由用户自主分享和转载自互联网,转载目的在于传递更多信息,并不代表本网赞同其观点和对其真实性负责。

如有侵权、违反国家法律政策行为,请联系我们,我们会第一时间及时清除和处理!

举报反馈邮箱:[email protected]

快速回复 返回顶部 返回列表