找回密码

蓝光电影网

查看: 1139|回复: 7

[科幻] 机器战警/威龙争雄 RoboCop.1987.ARROW.REMASTERED.DC.1080p.BluRay.REMUX.AVC.DTS-HD.MA.5.1-FGT 27.44GB

[复制链接]
蓝光币
1022
发表于 2020-1-29 20:27:24 | 显示全部楼层 |阅读模式
机械战警/威龙争雄 RoboCop.1987.ARROW.REMASTERED.DC.1080p.BluRay.REMUX.AVC.DTS-HD.MA.5.1-FGT 27.44GB-1.png

译  名 机械战警 / 威龙争雄 / 机械战警(台) / 机械战警 / 死去活来 / 铁甲威龙(港)
片  名 RoboCop
年  代 1987
产  地 美国
类  别 剧情 / 行动 / 科幻 / 惊悚 / 犯罪
语  言 英语
上映日期 1987-07-17
IMDb评分  7.5/10 from 220903 users
IMDb链接  https://www.imdb.com/title/tt0093870
豆瓣评分 7.6/10 from 32654 users
豆瓣链接 https://movie.douban.com/subject/1294791/
片  长 102 分钟
导  演 保罗·范霍文 Paul Verhoeven
编  剧 爱德华·诺麦尔 Edward Neumeier / 迈克尔·迈纳 Michael Miner
主  演 彼得·威勒 Peter Weller
       南茜·艾伦 Nancy Allen
       丹·奥赫里奇 Dan O'Herlihy
       罗尼·考克斯 Ronny Cox
       柯特伍德·史姑娘 Kurtwood Smith


标  签 科幻 | 美国 | 行动 | 典范 | 警匪 | 1987 | 犯罪 | 机械战警

简  介  

  底特律是天下著名的汽车城,这里的机械产业已经到了炉火纯青的境界。墨菲(彼得?威勒 Peter Weller 饰)是底特律的一个普通差人,既没有非凡身手、也没有高明技术。一次,他履利用命时被一伙大盗暴打致死,今后他的人生轨迹改变了。
  底特律的科学家没能救活他的身材,却能将他的脑筋和机械完善地合二为一。墨菲成了一个有着人类脑筋和机械身材的机械差人!身上装备了各类兵器、能对付各类百般的暴力活动的墨菲成了底特律差人的王牌。但是墨菲发买卖外后他的家人却奥秘失落了,墨菲冲击罪行之余一向在极力寻觅家人。
  使人意外的是,墨菲的机械身材却是操控在一伙好处团体手中。他们一向都在操纵墨菲干着各类罪行活动……

获奖情况  

  第60届奥斯卡金像奖(1988)
  最好剪辑(提名) 弗兰克·J·乌里奥斯特
  最好声响(提名) 亚伦·罗琴 / 迈克尔·J·科胡特 / 罗伯特·沃尔德 / 卡洛斯·德拉里奥斯
  出格成就奖 斯蒂芬·亨特·弗利克 / 约翰·波斯皮希尔
  1. Video
  2. ID                                       : 1
  3. Format                                   : AVC
  4. Format/Info                              : Advanced Video Codec
  5. Format profile                           : [email protected]
  6. Format settings                          : CABAC / 3 Ref Frames
  7. Format settings, CABAC                   : Yes
  8. Format settings, Reference frames        : 3 frames
  9. Codec ID                                 : V_MPEG4/ISO/AVC
  10. Duration                                 : 1 h 43 min
  11. Bit rate mode                            : Variable
  12. Bit rate                                 : 29.2 Mb/s
  13. Maximum bit rate                         : 38.0 Mb/s
  14. Width                                    : 1 920 pixels
  15. Height                                   : 1 080 pixels
  16. Display aspect ratio                     : 16:9
  17. Frame rate mode                          : Constant
  18. Frame rate                               : 23.976 (24000/1001) FPS
  19. Color space                              : YUV
  20. Chroma subsampling                       : 4:2:0
  21. Bit depth                                : 8 bits
  22. Scan type                                : Progressive
  23. Bits/(Pixel*Frame)                       : 0.588
  24. Stream size                              : 21.1 GiB (77%)
  25. Title                                    : RoboCop.1987.ARROW.REMASTERED.DC.1080p.BluRay.REMUX.AVC.DTS-HD.MA.5.1-FGT
  26. Language                                 : English
  27. Default                                  : No
  28. Forced                                   : No
  29. Color range                              : Limited
  30. Color primaries                          : BT.709
  31. Transfer characteristics                 : BT.709
  32. Matrix coefficients                      : BT.709

  33. Audio #1
  34. ID                                       : 2
  35. Format                                   : DTS XLL
  36. Format/Info                              : Digital Theater Systems
  37. Commercial name                          : DTS-HD Master Audio
  38. Codec ID                                 : A_DTS
  39. Duration                                 : 1 h 43 min
  40. Bit rate mode                            : Variable
  41. Bit rate                                 : 3 613 kb/s
  42. Channel(s)                               : 6 channels
  43. Channel layout                           : C L R Ls Rs LFE
  44. Sampling rate                            : 48.0 kHz
  45. Frame rate                               : 93.750 FPS (512 SPF)
  46. Bit depth                                : 24 bits
  47. Compression mode                         : Lossless
  48. Stream size                              : 2.61 GiB (9%)
  49. Title                                    : RoboCop.1987.ARROW.REMASTERED.DC.1080p.BluRay.REMUX.AVC.DTS-HD.MA.5.1-FGT
  50. Language                                 : English
  51. Default                                  : Yes
  52. Forced                                   : No

  53. Audio #2
  54. ID                                       : 3
  55. Format                                   : DTS XLL
  56. Format/Info                              : Digital Theater Systems
  57. Commercial name                          : DTS-HD Master Audio
  58. Codec ID                                 : A_DTS
  59. Duration                                 : 1 h 43 min
  60. Bit rate mode                            : Variable
  61. Bit rate                                 : 1 643 kb/s
  62. Channel(s)                               : 2 channels
  63. Sampling rate                            : 48.0 kHz
  64. Frame rate                               : 93.750 FPS (512 SPF)
  65. Bit depth                                : 24 bits
  66. Compression mode                         : Lossless
  67. Stream size                              : 1.19 GiB (4%)
  68. Title                                    : RoboCop.1987.ARROW.REMASTERED.DC.1080p.BluRay.REMUX.AVC.DTS-HD.MA.5.1-FGT
  69. Language                                 : English
  70. Default                                  : No
  71. Forced                                   : No

  72. Audio #3
  73. ID                                       : 4
  74. Format                                   : DTS XLL
  75. Format/Info                              : Digital Theater Systems
  76. Commercial name                          : DTS-HD Master Audio
  77. Codec ID                                 : A_DTS
  78. Duration                                 : 1 h 43 min
  79. Bit rate mode                            : Variable
  80. Bit rate                                 : 2 947 kb/s
  81. Channel(s)                               : 4 channels
  82. Channel layout                           : C L R Cb
  83. Sampling rate                            : 48.0 kHz
  84. Frame rate                               : 93.750 FPS (512 SPF)
  85. Bit depth                                : 24 bits
  86. Compression mode                         : Lossless
  87. Stream size                              : 2.13 GiB (8%)
  88. Title                                    : RoboCop.1987.ARROW.REMASTERED.DC.1080p.BluRay.REMUX.AVC.DTS-HD.MA.5.1-FGT
  89. Language                                 : English
  90. Default                                  : No
  91. Forced                                   : No

  92. Audio #4
  93. ID                                       : 5
  94. Format                                   : AC-3
  95. Format/Info                              : Audio Coding 3
  96. Commercial name                          : Dolby Digital
  97. Codec ID                                 : A_AC3
  98. Duration                                 : 1 h 43 min
  99. Bit rate mode                            : Constant
  100. Bit rate                                 : 192 kb/s
  101. Channel(s)                               : 2 channels
  102. Channel layout                           : L R
  103. Sampling rate                            : 48.0 kHz
  104. Frame rate                               : 31.250 FPS (1536 SPF)
  105. Bit depth                                : 16 bits
  106. Compression mode                         : Lossy
  107. Stream size                              : 142 MiB (1%)
  108. Title                                    : RoboCop.1987.ARROW.REMASTERED.DC.1080p.BluRay.REMUX.AVC.DTS-HD.MA.5.1-FGT
  109. Language                                 : English
  110. Service kind                             : Complete Main
  111. Default                                  : No
  112. Forced                                   : No

  113. Audio #5
  114. ID                                       : 6
  115. Format                                   : AC-3
  116. Format/Info                              : Audio Coding 3
  117. Commercial name                          : Dolby Digital
  118. Codec ID                                 : A_AC3
  119. Duration                                 : 1 h 43 min
  120. Bit rate mode                            : Constant
  121. Bit rate                                 : 192 kb/s
  122. Channel(s)                               : 2 channels
  123. Channel layout                           : L R
  124. Sampling rate                            : 48.0 kHz
  125. Frame rate                               : 31.250 FPS (1536 SPF)
  126. Bit depth                                : 16 bits
  127. Compression mode                         : Lossy
  128. Stream size                              : 142 MiB (1%)
  129. Title                                    : RoboCop.1987.ARROW.REMASTERED.DC.1080p.BluRay.REMUX.AVC.DTS-HD.MA.5.1-FGT
  130. Language                                 : English
  131. Service kind                             : Complete Main
  132. Default                                  : No
  133. Forced                                   : No

  134. Audio #6
  135. ID                                       : 7
  136. Format                                   : AC-3
  137. Format/Info                              : Audio Coding 3
  138. Commercial name                          : Dolby Digital
  139. Codec ID                                 : A_AC3
  140. Duration                                 : 1 h 43 min
  141. Bit rate mode                            : Constant
  142. Bit rate                                 : 192 kb/s
  143. Channel(s)                               : 2 channels
  144. Channel layout                           : L R
  145. Sampling rate                            : 48.0 kHz
  146. Frame rate                               : 31.250 FPS (1536 SPF)
  147. Bit depth                                : 16 bits
  148. Compression mode                         : Lossy
  149. Stream size                              : 142 MiB (1%)
  150. Title                                    : RoboCop.1987.ARROW.REMASTERED.DC.1080p.BluRay.REMUX.AVC.DTS-HD.MA.5.1-FGT
  151. Language                                 : English
  152. Service kind                             : Complete Main
  153. Default                                  : No
  154. Forced                                   : No

  155. Text
  156. ID                                       : 8
  157. Format                                   : PGS
  158. Muxing mode                              : zlib
  159. Codec ID                                 : S_HDMV/PGS
  160. Codec ID/Info                            : Picture based subtitle format used on BDs/HD-DVDs
  161. Duration                                 : 1 h 36 min
  162. Bit rate                                 : 38.2 kb/s
  163. Count of elements                        : 2660
  164. Stream size                              : 26.2 MiB (0%)
  165. Title                                    : English-PGS
  166. Language                                 : English
  167. Default                                  : Yes
  168. Forced                                   : No

  169. Menu
  170. 00:00:00.000                             : en:Chapter 01
  171. 00:09:50.798                             : en:Chapter 02
  172. 00:17:07.735                             : en:Chapter 03
  173. 00:24:20.000                             : en:Chapter 04
  174. 00:33:54.866                             : en:Chapter 05
  175. 00:45:14.336                             : en:Chapter 06
  176. 00:55:05.552                             : en:Chapter 07
  177. 01:01:40.279                             : en:Chapter 08
  178. 01:08:44.453                             : en:Chapter 09
  179. 01:17:26.266                             : en:Chapter 10
  180. 01:25:49.644                             : en:Chapter 11
  181. 01:34:04.055                             : en:Chapter 12
复制代码

机械战警/威龙争雄 RoboCop.1987.ARROW.REMASTERED.DC.1080p.BluRay.REMUX.AVC.DTS-HD.MA.5.1-FGT 27.44GB-2.png 机械战警/威龙争雄 RoboCop.1987.ARROW.REMASTERED.DC.1080p.BluRay.REMUX.AVC.DTS-HD.MA.5.1-FGT 27.44GB-3.png 机械战警/威龙争雄 RoboCop.1987.ARROW.REMASTERED.DC.1080p.BluRay.REMUX.AVC.DTS-HD.MA.5.1-FGT 27.44GB-4.png






回复

使用道具 举报

懒得打字嘛,点击右侧快捷回复 【右侧内容,后台自定义】
您需要登录后才可以回帖 登录 | 立即加入

本版积分规则

Archiver|小黑屋| 蓝光电影网 |网站地图

Copyright © 2021 Comsenz Inc. Powered by 蓝光电影网

蓝光电影网

本站内容由用户自主分享和转载自互联网,转载目的在于传递更多信息,并不代表本网赞同其观点和对其真实性负责。

如有侵权、违反国家法律政策行为,请联系我们,我们会第一时间及时清除和处理!

举报反馈邮箱:[email protected]

快速回复 返回顶部 返回列表